<?xml version="1.0" standalone="no"?>
<!DOCTYPE svg PUBLIC "-//W3C//DTD SVG 1.1//EN" "http://www.w3.org/Graphics/SVG/1.1/DTD/svg11.dtd" >
<svg xmlns="http://www.w3.org/2000/svg">
<metadata></metadata>
<defs>
<font id="nerissemibold" horiz-adv-x="555" >
<font-face units-per-em="1000" ascent="755" descent="-245" />
<missing-glyph horiz-adv-x="208" />
<glyph horiz-adv-x="1000" />
<glyph horiz-adv-x="1000" />
<glyph unicode="&#xd;" horiz-adv-x="440" />
<glyph unicode=" "  horiz-adv-x="208" />
<glyph unicode="&#x09;" horiz-adv-x="208" />
<glyph unicode="&#xa0;" horiz-adv-x="208" />
<glyph unicode="!" horiz-adv-x="265" d="M68 61q0 34 18 53t51 19t51.5 -19t18.5 -53t-18.5 -53t-51.5 -19t-51 19t-18 53zM74 449v240q0 11 11 11h96q11 0 11 -11v-240q0 -40 -9 -130.5t-10 -116.5q0 -11 -11 -11h-59q-11 0 -11 11q-1 31 -9.5 119.5t-8.5 127.5z" />
<glyph unicode="&#x22;" horiz-adv-x="372" d="M57 638v68q0 11 11 11h76q11 0 11 -11v-68q0 -19 -7 -68.5t-8 -56.5q-2 -10 -11 -10h-45q-10 0 -12 10q-1 14 -8 60.5t-7 64.5zM217 638v68q0 11 11 11h76q11 0 11 -11v-68q0 -19 -7 -68.5t-8 -56.5q-2 -10 -11 -10h-45q-10 0 -12 10q-1 14 -8 60.5t-7 64.5z" />
<glyph unicode="#" horiz-adv-x="745" d="M47 157l11 78q1 10 11 10h102l29 209h-100q-12 0 -11 12l9 78q2 10 11 10h105l19 135q1 10 11 10h82q12 0 10 -12l-18 -133h166l19 135q1 10 11 10h82q12 0 10 -12l-18 -133h100q12 0 11 -12l-9 -78q-2 -10 -11 -10h-105l-29 -209h102q11 0 10 -12l-11 -78 q-1 -10 -11 -10h-104l-19 -135q-1 -10 -11 -10h-82q-11 0 -10 12l18 133h-167l-19 -135q-1 -10 -11 -10h-81q-11 0 -10 12l18 133h-100q-11 0 -10 12zM274 245h167l29 209h-166z" />
<glyph unicode="$" horiz-adv-x="607" d="M54 54l26 77q5 10 14 6l55 -18q81 -26 157 -26q60 0 98 24t38 72q0 57 -99 94l-112 42q-92 34 -129.5 78t-37.5 117q0 77 48 125t132 60v91q0 11 11 11h90q11 0 11 -11v-90q47 -5 100 -22l58 -19q12 -5 7 -14l-27 -76q-5 -10 -14 -7l-53 17q-68 21 -127 21 q-54 0 -87.5 -23.5t-33.5 -62.5q0 -32 22 -54.5t75 -42.5l111 -41q91 -34 130.5 -77t39.5 -116q0 -82 -50.5 -133t-140.5 -63v-91q0 -11 -11 -11h-91q-11 0 -11 11v89q-60 5 -140 32l-52 17q-12 5 -7 14z" />
<glyph unicode="%" horiz-adv-x="771" d="M49 549q0 71 41 111.5t111 40.5t111 -40.5t41 -111.5t-41 -111.5t-111 -40.5t-111 40.5t-41 111.5zM108 13l457 670q6 7 13 7h77q7 0 9 -4t-2 -9l-457 -670q-6 -7 -13 -7h-77q-7 0 -9 4t2 9zM135 549q0 -33 17.5 -53t48.5 -20q30 0 48 20t18 53q0 35 -17.5 54t-48.5 19 q-32 0 -49 -19t-17 -54zM418 141q0 71 41 111t111 40t110.5 -40t40.5 -111t-40.5 -111.5t-110.5 -40.5t-111 40.5t-41 111.5zM504 141q0 -33 18 -52.5t48 -19.5q31 0 48.5 19.5t17.5 52.5q0 34 -17.5 52.5t-48.5 18.5t-48.5 -18.5t-17.5 -52.5z" />
<glyph unicode="&#x26;" horiz-adv-x="709" d="M46 157q0 51 22 89.5t76 78.5l50 40q-64 78 -64 157q0 86 56.5 136.5t151.5 50.5q61 0 128 -22l51 -17q12 -5 7 -14l-26 -74q-5 -10 -14 -6l-48 16q-54 16 -98 16q-46 0 -74 -23.5t-28 -62.5q0 -51 55 -110l167 -184l19 15q21 20 30 29.5t15.5 23t6.5 29.5v29h-62 q-11 0 -11 11v76q0 11 11 11h156q11 0 11 -11v-116q0 -54 -20.5 -87.5t-74.5 -75.5l-12 -10l126 -138q4 -6 2.5 -10t-8.5 -4h-110q-9 0 -13 6l-78 84l-48 -36q-86 -65 -174 -65q-84 0 -131 45t-47 123zM153 157q0 -31 19 -48.5t52 -17.5q56 0 114 47l38 28l-114 124l-65 -51 q-44 -38 -44 -82z" />
<glyph unicode="'" horiz-adv-x="212" d="M57 638v68q0 11 11 11h76q11 0 11 -11v-68q0 -19 -7 -68.5t-8 -56.5q-2 -10 -11 -10h-45q-10 0 -12 10q-1 14 -8 60.5t-7 64.5z" />
<glyph unicode="(" horiz-adv-x="360" d="M91 327q0 228 98 418q4 8 13 8h81q15 0 8 -13q-98 -216 -98 -413q0 -198 98 -414q7 -13 -8 -13h-81q-9 0 -13 8q-98 190 -98 419z" />
<glyph unicode=")" horiz-adv-x="360" d="M69 -87q98 216 98 414q0 197 -98 413q-7 13 8 13h81q9 0 13 -8q98 -190 98 -418q0 -229 -98 -419q-4 -8 -13 -8h-81q-15 0 -8 13z" />
<glyph unicode="*" horiz-adv-x="409" d="M42 537v52q0 11 11 11h50q21 0 47 -6q3 -1 4 1t-1 4q-21 21 -29 34l-40 71q-7 13 8 13h59q9 0 13 -8l22 -38q10 -19 15 -44q1 -4 3.5 -4t3.5 5q6 26 14 41l23 40q4 8 13 8h59q7 0 9 -4t-2 -9l-40 -71q-11 -19 -28 -34q-2 -2 -2 -3q0 -3 11 0q22 4 39 4h52q11 0 11 -11 v-52q0 -11 -11 -11h-52q-8 0 -46 7q-3 1 -4 -1t1 -5q19 -16 30 -34l39 -71q7 -13 -8 -13h-57q-9 0 -13 8l-22 38q-12 21 -16 44q-1 9 -5 4l-2 -4q-4 -21 -16 -44l-22 -38q-4 -8 -13 -8h-57q-15 0 -8 13l39 69q9 17 29 37q3 2 1.5 4.5t-4.5 1.5q-24 -8 -47 -8h-50 q-11 0 -11 11z" />
<glyph unicode="+" horiz-adv-x="631" d="M74 222v78q0 11 11 11h179v194q0 11 11 11h81q11 0 11 -11v-194h179q11 0 11 -11v-78q0 -11 -11 -11h-179v-195q0 -11 -11 -11h-81q-11 0 -11 11v195h-179q-11 0 -11 11z" />
<glyph unicode="," horiz-adv-x="247" d="M51 -141l53 101q9 16 7.5 23t-15.5 11q-43 14 -43 65q0 35 18.5 54t52.5 19q32 0 51 -22t19 -59q0 -53 -34 -116l-39 -76h-70z" />
<glyph unicode="-" horiz-adv-x="437" d="M74 223v77q0 11 11 11h267q11 0 11 -11v-77q0 -11 -11 -11h-267q-11 0 -11 11z" />
<glyph unicode="." horiz-adv-x="255" d="M58 61q0 34 18 53t51 19t51.5 -19t18.5 -53t-18.5 -53t-51.5 -19t-51 19t-18 53z" />
<glyph unicode="/" horiz-adv-x="522" d="M46 -87l333 832q3 9 12 9h86q14 0 9 -13l-334 -832q-3 -9 -12 -9h-85q-14 0 -9 13z" />
<glyph unicode="0" horiz-adv-x="641" d="M53 349q0 167 71.5 263.5t195.5 96.5q125 0 196.5 -96.5t71.5 -263.5t-71.5 -263.5t-196.5 -96.5q-124 0 -195.5 96.5t-71.5 263.5zM166 349q0 -122 40.5 -190.5t113.5 -68.5t114 68.5t41 190.5t-41 191t-114 69t-113.5 -69t-40.5 -191z" />
<glyph unicode="1" horiz-adv-x="357" d="M39 603q-5 9 6 14l208 89q9 3 18 -3.5t9 -16.5v-675q0 -11 -11 -11h-89q-11 0 -11 11v468q0 31 5 69q1 11 -8 11q-1 0 -3 -0.5t-3 -0.5l-4 -2t-4.5 -2t-3.5 -2l-66 -29q-9 -5 -14 6z" />
<glyph unicode="2" horiz-adv-x="582" d="M62 11v48q0 184 130 269l158 105q58 39 58 84q0 42 -31 67t-85 25q-65 0 -126 -21l-58 -19q-10 -3 -13 7l-25 75q-5 10 7 13l56 19q86 26 159 26q107 0 168 -51t61 -141q0 -94 -116 -170l-159 -107q-71 -48 -71 -141h325q11 0 11 -11v-77q0 -11 -11 -11h-427 q-11 0 -11 11z" />
<glyph unicode="3" horiz-adv-x="584" d="M55 50l27 73q4 10 14 7l57 -19q66 -21 126 -21q63 0 100 31t37 83q0 53 -35 83t-98 30h-48q-11 0 -11 11v77q0 11 11 11h47q53 0 82.5 25t29.5 67q0 47 -31 74t-84 27q-51 0 -113 -19l-50 -17q-9 -3 -14 7l-25 74q-5 11 7 14l51 17q72 24 144 24q106 0 166.5 -50.5 t60.5 -139.5q0 -100 -88 -141q-17 -8 0 -15q110 -45 110 -171q0 -94 -66.5 -148.5t-182.5 -54.5q-70 0 -158 27l-59 19q-11 5 -7 15z" />
<glyph unicode="4" horiz-adv-x="621" d="M44 190v84q0 9 5 14q40 47 71 89l185 238q21 28 51 77q6 7 14 7h121q11 0 11 -11v-410h62q11 0 11 -11v-77q0 -11 -11 -11h-62v-168q0 -11 -11 -11h-90q-11 0 -11 11v168h-335q-11 0 -11 11zM173 293q-5 -6 -3 -10.5t8 -4.5h212v173q0 47 6 98q2 9 -3.5 10.5t-11.5 -6.5 l-162 -206q-25 -34 -46 -54z" />
<glyph unicode="5" horiz-adv-x="597" d="M59 51l28 73q5 11 14 6l56 -19q68 -21 129 -21q67 0 104.5 34.5t39.5 96.5q1 56 -33 88t-100 32q-34 0 -87 -8l-88 -12q-7 -1 -14 4l-8 8q-6 5 -6 13v342q0 11 11 11h386q14 0 9 -12l-22 -78q-3 -9 -13 -9h-260v-105q0 -39 -2 -55q-1 -8 2 -9.5t12 0.5l28 4q37 6 70 6 q106 1 167 -58t61 -162q0 -109 -68 -170.5t-189 -61.5q-70 0 -161 28l-59 19q-11 5 -7 15z" />
<glyph unicode="6" horiz-adv-x="616" d="M53 230q0 84 28 152.5t101 166.5l105 143q6 7 13 7h107q7 0 9.5 -4t-2.5 -9l-137 -186q-21 -31 -52 -62q-7 -8 -3.5 -12.5t13.5 -0.5q46 24 109 24q96 0 158.5 -61.5t62.5 -166.5q0 -110 -67.5 -171t-188.5 -61q-123 0 -190 63t-66 178zM166 221q0 -62 38 -96.5 t105 -34.5t105 34.5t38 96.5q0 61 -38 95.5t-105 34.5q-68 0 -105.5 -34.5t-37.5 -95.5z" />
<glyph unicode="7" horiz-adv-x="588" d="M47 611v77q0 11 11 11h474q9 0 16 -10.5t1 -19.5q-33 -55 -67 -134l-222 -527q-5 -8 -13 -8h-95q-14 0 -9 13l209 492q18 42 44 79q11 16 -12 16h-326q-11 0 -11 11z" />
<glyph unicode="8" horiz-adv-x="625" d="M56 191q0 61 33.5 105t89.5 66q5 2 7 5t0 6t-7 5q-101 39 -101 146q0 86 62.5 135.5t171.5 49.5t171.5 -49.5t62.5 -135.5q0 -107 -102 -146q-8 -4 -8 -8.5t8 -7.5q57 -22 91 -66t34 -105q0 -94 -68.5 -148t-188.5 -54t-188 54t-68 148zM169 201q0 -53 38 -82t105 -29 q68 0 106 29t38 82t-40 84.5t-104 31.5t-103.5 -31.5t-39.5 -84.5zM191 511q0 -44 32.5 -69t88.5 -25t88.5 25t32.5 69q0 46 -32.5 72t-88.5 26q-57 0 -89 -26t-32 -72z" />
<glyph unicode="9" horiz-adv-x="616" d="M48 478q0 110 67.5 171t188.5 61q123 0 190 -63t66 -178q0 -84 -28 -152.5t-101 -166.5l-105 -143q-6 -7 -13 -7h-107q-7 0 -9.5 4t2.5 9l137 186q21 31 52 62q7 8 3.5 12.5t-13.5 0.5q-46 -24 -109 -24q-96 0 -158.5 61.5t-62.5 166.5zM161 478q0 -61 38 -95.5 t105 -34.5q68 0 105.5 34.5t37.5 95.5q0 62 -38 96.5t-105 34.5t-105 -34.5t-38 -96.5z" />
<glyph unicode=":" horiz-adv-x="245" d="M58 62q0 34 18 53t51 19t51.5 -19t18.5 -53t-18.5 -53t-51.5 -19t-51 19t-18 53zM58 424q0 34 18 53t51 19t51.5 -19t18.5 -53t-18.5 -53t-51.5 -19t-51 19t-18 53z" />
<glyph unicode=";" horiz-adv-x="251" d="M54 -138l53 101q9 16 7.5 23t-15.5 11q-43 14 -43 65q0 35 18.5 54t52.5 19q32 0 51 -22t19 -59q0 -53 -34 -116l-39 -76h-70zM61 424q0 34 18 53t51 19t51.5 -19t18.5 -53t-18.5 -53t-51.5 -19t-51 19t-18 53z" />
<glyph unicode="&#x3c;" horiz-adv-x="632" d="M75 228v57q0 8 8 13l462 217q13 7 13 -8v-89q0 -8 -8 -13l-326 -149l326 -149q8 -5 8 -13v-88q0 -14 -13 -8l-462 217q-8 5 -8 13z" />
<glyph unicode="=" horiz-adv-x="603" d="M74 111v77q0 11 11 11h433q11 0 11 -11v-77q0 -11 -11 -11h-433q-11 0 -11 11zM74 335v77q0 11 11 11h433q11 0 11 -11v-77q0 -11 -11 -11h-433q-11 0 -11 11z" />
<glyph unicode="&#x3e;" horiz-adv-x="632" d="M74 6v88q0 8 8 13l326 149l-326 149q-8 5 -8 13v89q0 15 13 8l462 -217q8 -5 8 -13v-57q0 -8 -8 -13l-462 -217q-13 -6 -13 8z" />
<glyph unicode="?" horiz-adv-x="566" d="M47 650q-5 10 7 13l59 20q87 26 163 26q111 0 171.5 -48.5t60.5 -134.5q0 -94 -99 -164l-55 -39q-40 -30 -40 -75v-51q0 -11 -11 -11h-90q-11 0 -11 11v51q0 99 87 160l57 39q50 35 50 79q0 33 -34 54.5t-86 21.5q-62 0 -129 -20l-58 -19q-9 -3 -14 7zM194 60q0 34 18 53 t51 19t51.5 -19t18.5 -53t-18.5 -53t-51.5 -19t-51 19t-18 53z" />
<glyph unicode="@" horiz-adv-x="867" d="M64 253q0 163 100 262t265 99q167 0 272 -96t105 -240q0 -74 -36.5 -112t-96.5 -38q-52 0 -84.5 29t-63.5 101q-17 37 -37 56t-54 19q-36 0 -58.5 -20.5t-22.5 -56.5q0 -37 23.5 -58.5t64.5 -21.5q30 0 57 9q9 3 15 -6q21 -41 49 -61q11 -10 -2 -14l-42 -11 q-34 -12 -79 -12q-86 0 -134.5 46.5t-48.5 128.5q0 79 45.5 124.5t127.5 45.5q105 0 159 -86q17 -25 33.5 -58.5t26.5 -46t25 -12.5q34 0 34 55q0 103 -78.5 171.5t-199.5 68.5q-119 0 -192.5 -73t-73.5 -192q0 -118 72.5 -190.5t191.5 -72.5q76 0 148 23l88 23q10 3 13 -7 l22 -71q3 -11 -8 -14l-90 -25q-81 -25 -173 -25q-165 0 -264 98.5t-99 260.5z" />
<glyph unicode="A" horiz-adv-x="722" d="M38 13l172 439q51 137 77 237q1 10 12 10h123q10 0 12 -9q27 -103 78 -238l172 -439q5 -13 -9 -13h-96q-9 0 -12 9l-49 125h-314l-49 -125q-3 -9 -12 -9h-96q-14 0 -9 13zM243 235h236l-53 131q-43 117 -57 185q-1 5 -4.5 7t-7 0t-4.5 -7q-14 -69 -58 -185z" />
<glyph unicode="B" horiz-adv-x="652" d="M77 11v677q0 11 11 11h269q105 0 165 -47.5t60 -131.5q0 -58 -27 -95.5t-66 -53.5q-6 -2 -8.5 -5t-0.5 -6.5t9 -5.5q48 -15 82 -56.5t34 -108.5q0 -89 -61 -139t-171 -50h-285q-11 0 -11 11zM190 101h182q55 0 86 26t31 72q0 110 -153 110h-146v-208zM190 409h138 q68 0 103.5 26t35.5 74q0 41 -29.5 65t-80.5 24h-167v-189z" />
<glyph unicode="C" horiz-adv-x="617" d="M51 350q0 166 82 262.5t225 96.5q81 0 146 -23l44 -15q10 -3 7 -13l-26 -77q-3 -10 -13 -7l-45 15q-45 16 -113 17q-91 0 -141.5 -67.5t-50.5 -188.5q0 -122 50.5 -189.5t141.5 -67.5q61 0 114 18l44 15q9 3 14 -7l27 -75q5 -11 -7 -14l-44 -15q-74 -26 -148 -26 q-143 0 -225 97t-82 264z" />
<glyph unicode="D" horiz-adv-x="678" d="M77 11v677q0 11 11 11h234q142 0 223.5 -94t81.5 -256q0 -160 -82 -254.5t-223 -94.5h-234q-11 0 -11 11zM190 101h132q89 0 139 65.5t50 182.5q0 118 -50 183.5t-139 65.5h-132v-497z" />
<glyph unicode="E" horiz-adv-x="606" d="M77 11v677q0 11 11 11h458q13 0 10 -12l-22 -80q-3 -9 -13 -9h-331v-189h278q11 0 11 -11v-78q0 -11 -11 -11h-278v-208h356q11 0 11 -11v-79q0 -11 -11 -11h-458q-11 0 -11 11z" />
<glyph unicode="F" horiz-adv-x="598" d="M77 11v677q0 11 11 11h455q13 0 10 -12l-22 -80q-3 -9 -13 -9h-328v-217h285q11 0 11 -11v-79q0 -11 -11 -11h-285v-269q0 -11 -11 -11h-91q-11 0 -11 11z" />
<glyph unicode="G" horiz-adv-x="670" d="M51 349q0 166 81.5 263t224.5 97q72 0 147 -24l46 -16q12 -5 7 -14l-28 -75q-4 -10 -14 -7l-44 15q-54 18 -114 18q-90 0 -140.5 -68t-50.5 -189t50.5 -188.5t140.5 -67.5q63 0 111 16l28 9v151h-121q-13 0 -10 12l22 80q3 9 13 9h194q11 0 11 -11v-303q0 -10 -9 -13 q-40 -13 -92 -31q-72 -23 -147 -23q-143 0 -224.5 97t-81.5 263z" />
<glyph unicode="H" horiz-adv-x="702" d="M77 11v677q0 11 11 11h91q11 0 11 -11v-279h321v279q0 11 11 11h92q11 0 11 -11v-677q0 -11 -11 -11h-92q-11 0 -11 11v298h-321v-298q0 -11 -11 -11h-91q-11 0 -11 11z" />
<glyph unicode="I" horiz-adv-x="267" d="M77 11v677q0 11 11 11h91q11 0 11 -11v-677q0 -11 -11 -11h-91q-11 0 -11 11z" />
<glyph unicode="J" horiz-adv-x="450" d="M42 29l26 76q5 10 14 7l28 -9q25 -10 63 -10q41 0 64.5 29t23.5 88v478q0 11 11 11h91q11 0 11 -11v-478q0 -104 -53.5 -162.5t-147.5 -58.5q-47 0 -97 17l-28 9q-10 5 -6 14z" />
<glyph unicode="K" horiz-adv-x="667" d="M77 11v677q0 11 11 11h91q11 0 11 -11v-279h22q51 0 100 37t84 95l93 151q6 7 14 7h100q6 0 8.5 -4t-1.5 -9l-117 -193q-57 -93 -139 -126q-5 -2 -5.5 -6t5.5 -6q85 -37 146 -137l125 -205q4 -5 1.5 -9t-9.5 -4h-101q-8 0 -14 7l-99 160q-38 63 -87.5 102.5t-102.5 39.5 h-23v-298q0 -11 -11 -11h-91q-11 0 -11 11z" />
<glyph unicode="L" horiz-adv-x="569" d="M77 11v677q0 11 11 11h91q11 0 11 -11v-587h317q11 0 11 -11v-79q0 -11 -11 -11h-419q-11 0 -11 11z" />
<glyph unicode="M" horiz-adv-x="824" d="M77 11v677q0 11 11 11h140q10 0 13 -9q13 -45 25 -74l100 -240q20 -52 39 -116q1 -5 4 -7t6 0t4 7q20 71 37 116l101 239q16 36 27 75q2 9 12 9h140q11 0 11 -11v-677q0 -11 -11 -11h-91q-11 0 -11 11v324q0 128 9 192q2 10 -4 11.5t-10 -8.5q-6 -16 -32 -80l-95 -224 q-17 -40 -36 -99q-3 -9 -13 -9h-83q-9 0 -12 9q-20 59 -36 99l-95 224q-20 46 -33 80q-4 10 -9.5 8.5t-4.5 -11.5q10 -71 10 -192v-324q0 -11 -11 -11h-91q-11 0 -11 11z" />
<glyph unicode="N" horiz-adv-x="718" d="M77 11v677q0 11 11 11h120q8 0 13 -8q22 -49 53 -103l214 -353q19 -36 35 -67q2 -6 6 -7.5t6 2t1 9.5q-8 50 -8 137v379q0 11 11 11h91q11 0 11 -11v-677q0 -11 -11 -11h-120q-8 0 -13 8q-19 46 -52 103l-214 353q-20 35 -35 67q-4 8 -10 6t-4 -10q9 -68 9 -139v-377 q0 -11 -11 -11h-92q-11 0 -11 11z" />
<glyph unicode="O" horiz-adv-x="709" d="M51 350q0 166 81.5 262.5t222.5 96.5t222.5 -96.5t81.5 -262.5q0 -167 -81.5 -264t-222.5 -97t-222.5 97t-81.5 264zM166 350q0 -120 50 -188.5t139 -68.5q88 0 138 68.5t50 188.5q0 121 -49.5 188.5t-138.5 67.5t-139 -67.5t-50 -188.5z" />
<glyph unicode="P" horiz-adv-x="633" d="M77 11v677q0 11 11 11h255q114 0 177.5 -59t63.5 -163q0 -111 -74 -171t-212 -60h-108v-235q0 -11 -11 -11h-91q-11 0 -11 11zM190 346h108q84 0 127.5 34t43.5 97q0 57 -33.5 89t-92.5 32h-153v-252z" />
<glyph unicode="Q" horiz-adv-x="710" d="M51 349q0 166 81.5 263t222.5 97t222.5 -97t81.5 -263q0 -103 -35.5 -181.5t-91.5 -107.5q-19 -9 0 -14q69 -23 123 -91l43 -58q7 -8 -2 -16l-67 -52q-8 -7 -16 2l-45 59q-38 50 -88 74.5t-125 24.5q-141 0 -222.5 97t-81.5 263zM166 349q0 -120 50 -188t139 -68 q88 0 138 68t50 188q0 121 -50 189t-138 68q-89 0 -139 -68t-50 -189z" />
<glyph unicode="R" horiz-adv-x="670" d="M77 11v677q0 11 11 11h270q109 0 170.5 -53.5t61.5 -148.5q0 -66 -36 -112t-97 -68q-18 -8 -1 -18q57 -30 96 -116l71 -170q5 -13 -9 -13h-97q-8 0 -13 8l-54 129q-29 71 -71 103.5t-117 32.5h-72v-262q0 -11 -11 -11h-91q-11 0 -11 11zM190 373h127q77 0 117.5 30 t40.5 87q0 50 -31.5 79t-85.5 29h-168v-225z" />
<glyph unicode="S" horiz-adv-x="607" d="M54 54l26 77q5 10 14 6l55 -18q81 -26 157 -26q60 0 98 24t38 72q0 57 -99 94l-112 42q-92 34 -129.5 78t-37.5 117q0 89 63.5 139t172.5 50q79 0 156 -25l58 -19q12 -5 7 -14l-27 -76q-5 -10 -14 -7l-53 17q-68 21 -127 21q-54 0 -87.5 -23.5t-33.5 -62.5 q0 -32 22 -54.5t75 -42.5l111 -41q91 -34 130.5 -77t39.5 -116q0 -96 -66.5 -148t-184.5 -52q-94 0 -193 34l-52 17q-12 5 -7 14z" />
<glyph unicode="T" horiz-adv-x="639" d="M39 609v79q0 11 11 11h539q11 0 11 -11v-79q0 -11 -11 -11h-213v-587q0 -11 -11 -11h-92q-11 0 -11 11v587h-212q-11 0 -11 11z" />
<glyph unicode="U" horiz-adv-x="672" d="M67 281v407q0 11 11 11h91q11 0 11 -11v-407q0 -90 41 -139t115 -49t114.5 49t40.5 139v407q0 11 11 11h92q11 0 11 -11v-407q0 -139 -70.5 -215.5t-198.5 -76.5t-198.5 76.5t-70.5 215.5z" />
<glyph unicode="V" horiz-adv-x="702" d="M33 686q-5 13 9 13h96q9 0 12 -9l142 -358q36 -96 51 -178q1 -5 4.5 -7t7.5 0t4 7q16 85 52 178l141 358q3 9 12 9h97q14 0 9 -13l-173 -438q-45 -119 -75 -239q-2 -9 -12 -9h-117q-11 0 -12 9q-35 129 -76 239z" />
<glyph unicode="W" horiz-adv-x="995" d="M41 687q-3 12 10 12h93q10 0 13 -9l101 -360q23 -85 30 -170q0 -5 3.5 -7t7.5 0t4 7q11 85 35 170l109 360q3 9 13 9h74q10 0 13 -9l110 -360q27 -96 35 -170q1 -8 7 -8t7 8q7 80 31 170l100 360q3 9 13 9h94q13 0 10 -12l-138 -499q-27 -101 -42 -178q-1 -10 -12 -10 h-121q-11 0 -12 10q-16 84 -36 155l-71 237q-10 33 -17 82q-1 6 -4 8.5t-6 0t-4 -8.5q-3 -18 -18 -82l-71 -237q-24 -91 -36 -155q-1 -10 -12 -10h-121q-11 0 -12 10q-15 77 -42 178z" />
<glyph unicode="X" horiz-adv-x="690" d="M59 13l154 261q29 50 65 72q9 7 0 13q-38 22 -63 70l-152 257q-4 5 -1.5 9t8.5 4h100q9 0 13 -7l152 -257q10 -18 20 0l151 256q4 8 13 8h101q6 0 8.5 -4t-1.5 -9l-151 -257q-26 -48 -64 -70q-9 -7 0 -13q38 -23 65 -72l154 -261q4 -5 1.5 -9t-8.5 -4h-101q-9 0 -13 7 l-157 263q-8 14 -17 0l-156 -263q-4 -7 -13 -7h-101q-6 0 -8.5 4t1.5 9z" />
<glyph unicode="Y" horiz-adv-x="674" d="M36 686q-4 5 -1.5 9t8.5 4h101q9 0 13 -7l108 -179q35 -59 64 -135q3 -8 8.5 -8t7.5 8q24 62 64 135l109 179q4 7 13 7h101q6 0 8.5 -4t-1.5 -9l-148 -250q-58 -106 -77.5 -158t-19.5 -132v-135q0 -11 -11 -11h-92q-11 0 -11 11v135q0 80 -19.5 133t-77.5 157z" />
<glyph unicode="Z" horiz-adv-x="621" d="M59 29q38 55 82 137l199 333q32 62 53 84q7 7 5 11.5t-10 4.5q-29 -1 -80 -1h-227q-11 0 -11 11v79q0 11 11 11h468q8 0 14.5 -9.5t1.5 -18.5q-45 -64 -82 -134l-201 -337q-26 -46 -55 -84q-6 -9 -4 -13t12 -3q14 0 41.5 0.5t39.5 0.5h231q14 0 9 -12l-22 -80 q-3 -9 -13 -9h-446q-9 0 -15 10t-1 19z" />
<glyph unicode="[" horiz-adv-x="360" d="M97 -89v831q0 11 11 11h172q11 0 11 -11v-77q0 -11 -11 -11h-80v-654h80q11 0 11 -11v-78q0 -11 -11 -11h-172q-11 0 -11 11z" />
<glyph unicode="\" horiz-adv-x="522" d="M36 741q-5 13 9 13h86q9 0 12 -9l333 -832q5 -13 -9 -13h-85q-9 0 -12 9z" />
<glyph unicode="]" horiz-adv-x="360" d="M69 -11q0 11 11 11h80v654h-80q-11 0 -11 11v77q0 11 11 11h172q11 0 11 -11v-831q0 -11 -11 -11h-172q-11 0 -11 11v78z" />
<glyph unicode="^" horiz-adv-x="507" d="M55 360l149 323q5 8 13 8h73q8 0 13 -8l149 -323q6 -13 -8 -13h-96q-9 0 -12 9l-82 200l-83 -200q-3 -9 -12 -9h-96q-15 0 -8 13z" />
<glyph unicode="_" horiz-adv-x="511" d="M-13 -126q0 11 11 11h516q11 0 11 -11v-77q0 -11 -11 -11h-516q-11 0 -11 11v77z" />
<glyph unicode="`" horiz-adv-x="300" d="M57 704q-5 5 -2.5 9t9.5 4h101q9 0 13 -8l68 -129q6 -13 -8 -13h-74q-7 0 -13 7z" />
<glyph unicode="a" horiz-adv-x="515" d="M38 140q0 72 47.5 113t134.5 41h125v6q0 94 -113 94q-44 0 -78 -10l-36 -11q-11 -3 -14 8l-22 74q-3 11 8 14l38 11q51 15 109 15q102 0 160 -50.5t58 -140.5v-293q0 -11 -11 -11h-50q-10 0 -13 9l-8 31q-8 18 -25 2q-48 -53 -137 -53q-83 0 -128 40t-45 111zM148 150 q0 -29 19.5 -46t55.5 -17q59 0 90.5 29t31.5 84v7h-125q-72 0 -72 -57z" />
<glyph unicode="b" horiz-adv-x="563" d="M67 63v643q0 11 11 11h89q11 0 11 -11v-146q0 -68 -16 -112q-4 -11 1.5 -14.5t14.5 4.5q49 57 132 57q98 0 154 -67.5t56 -184.5q0 -118 -61.5 -186t-169.5 -68q-68 0 -125 25l-88 36q-9 4 -9 13zM177 121l30 -14q37 -17 82 -17q57 0 89 40.5t32 112.5q0 71 -31 111.5 t-85 40.5q-58 0 -87.5 -41t-29.5 -108v-125z" />
<glyph unicode="c" horiz-adv-x="474" d="M43 243q0 118 62 185t178 67q45 0 86 -12l43 -12q11 -3 8 -14l-23 -75q-3 -10 -13 -7l-34 9q-34 11 -67 11q-130 0 -130 -151q0 -74 32.5 -114t95.5 -40q35 0 74 11l33 10q11 3 14 -7l23 -75q3 -11 -8 -14l-44 -13q-49 -13 -93 -13q-113 0 -175 68t-62 186z" />
<glyph unicode="d" horiz-adv-x="563" d="M43 243q0 117 59.5 184.5t164.5 67.5q52 0 89 -17l29 -13v241q0 11 11 11h89q11 0 11 -11v-695q0 -11 -11 -11h-50q-11 0 -12 9l-11 42q-5 16 -20 0q-56 -62 -139 -62q-98 0 -154 68.5t-56 185.5zM153 243q0 -71 31.5 -112t86.5 -41t85 41t30 106v127l-30 14 q-37 17 -82 17q-57 0 -89.5 -40.5t-31.5 -111.5z" />
<glyph unicode="e" horiz-adv-x="511" d="M43 242q0 118 61.5 185.5t170.5 67.5q90 0 141.5 -42.5t51.5 -116.5q0 -114 -147 -136l-157 -24q8 -40 37.5 -63t76.5 -23q49 0 79 10l44 11q11 3 14 -8l20 -75q3 -11 -8 -14l-46 -12q-52 -13 -102 -13q-112 0 -174 67.5t-62 185.5zM154 262l150 24q54 9 54 48 q0 61 -85 61q-107 0 -119 -133z" />
<glyph unicode="f" horiz-adv-x="375" d="M42 397v77q0 11 11 11h49v65q0 83 46 130.5t128 47.5q30 0 66 -12l18 -6q10 -5 7 -14l-24 -74q-3 -10 -13 -7l-16 5q-20 7 -38 7q-29 0 -46 -20.5t-17 -56.5v-65h112q11 0 11 -11v-77q0 -11 -11 -11h-112v-375q0 -11 -11 -11h-89q-11 0 -11 11v375h-49q-11 0 -11 11z" />
<glyph unicode="g" horiz-adv-x="558" d="M43 240q0 121 61.5 188t171.5 67q67 0 123 -23l89 -37q9 -3 9 -12v-419q0 -111 -62.5 -170t-177.5 -59q-63 0 -109 13l-49 14q-11 3 -8 14l23 74q3 10 13 7l39 -11q38 -11 86 -11q126 0 150 107q2 23 3.5 37.5t1.5 24.5q0 6 -3.5 7.5t-10.5 -4.5q-53 -58 -138 -58 q-99 0 -155.5 68t-56.5 183zM153 243q0 -70 30 -111.5t85 -41.5q57 0 87.5 39.5t30.5 111.5v123l-30 14q-34 17 -81 17q-58 0 -90 -40t-32 -112z" />
<glyph unicode="h" d="M67 11v695q0 11 11 11h89q11 0 11 -11v-146q0 -65 -16 -114q-3 -9 1 -12t13 3q53 58 134 58q86 0 134.5 -50.5t48.5 -138.5v-295q0 -11 -11 -11h-89q-11 0 -11 11v283q0 48 -23 74.5t-64 26.5q-58 0 -87 -41t-30 -110v-233q0 -11 -11 -11h-89q-11 0 -11 11z" />
<glyph unicode="i" horiz-adv-x="280" d="M42 397v77q0 11 11 11h149q11 0 11 -11v-463q0 -11 -11 -11h-89q-11 0 -11 11v375h-49q-11 0 -11 11zM79 658q0 32 17.5 49.5t49.5 17.5q31 0 48.5 -17.5t17.5 -49.5t-17.5 -50t-48.5 -18q-32 0 -49.5 18t-17.5 50z" />
<glyph unicode="j" horiz-adv-x="280" d="M20 -148q-5 9 4 15l23 16q55 36 55 96v407h-49q-11 0 -11 11v77q0 11 11 11h149q11 0 11 -11v-495q0 -115 -113 -184l-25 -17q-9 -7 -16 3zM80 658q0 32 17.5 49.5t48.5 17.5t48.5 -17.5t17.5 -49.5t-17.5 -50t-48.5 -18t-48.5 18t-17.5 50z" />
<glyph unicode="k" horiz-adv-x="535" d="M67 11v695q0 11 11 11h89q11 0 11 -11v-411h15q23 0 44 14.5t31.5 27.5t29.5 40l66 101q6 7 14 7h98q15 0 8 -13l-88 -142q-42 -61 -87 -78q-9 -4 0 -8q55 -24 93 -81l92 -150q4 -5 1.5 -9t-9.5 -4h-99q-8 0 -14 7l-69 111q-25 38 -49.5 57.5t-61.5 19.5h-15v-184 q0 -11 -11 -11h-89q-11 0 -11 11z" />
<glyph unicode="l" horiz-adv-x="285" d="M67 117v589q0 11 11 11h89q11 0 11 -11v-589q0 -27 20 -27h7q11 2 14 -6l30 -71q1 -4 1 -7t-3 -5.5t-6.5 -4.5t-8.5 -3t-9.5 -2t-9.5 -1.5t-8.5 -0.5h-6.5q-62 0 -96.5 33.5t-34.5 94.5z" />
<glyph unicode="m" horiz-adv-x="841" d="M67 11v463q0 11 11 11h50q11 0 12 -10l9 -39q8 -16 24 -1q53 60 130 60q84 0 130 -67q16 -17 34 0q57 67 137 67q84 0 130 -50t46 -139v-295q0 -11 -11 -11h-90q-11 0 -11 11v283q0 101 -79 101q-55 0 -82.5 -40t-27.5 -111v-233q0 -11 -11 -11h-90q-11 0 -11 11v284 q0 47 -20.5 73.5t-58.5 26.5q-110 0 -110 -151v-233q0 -11 -11 -11h-89q-11 0 -11 11z" />
<glyph unicode="n" d="M67 11v463q0 11 11 11h50q11 0 12 -10l9 -40q8 -15 23 -1q54 61 138 61q86 0 134.5 -50.5t48.5 -138.5v-295q0 -11 -11 -11h-89q-11 0 -11 11v283q0 47 -23 74t-64 27q-56 0 -86.5 -39.5t-30.5 -111.5v-233q0 -11 -11 -11h-89q-11 0 -11 11z" />
<glyph unicode="o" horiz-adv-x="547" d="M43 243q0 116 62 184t169 68q106 0 168 -68t62 -184q0 -117 -62 -185.5t-168 -68.5q-107 0 -169 68.5t-62 185.5zM153 243q0 -72 32 -112.5t89 -40.5q56 0 88 40.5t32 112.5q0 71 -32 111.5t-88 40.5q-57 0 -89 -40.5t-32 -111.5z" />
<glyph unicode="p" horiz-adv-x="563" d="M67 -204v678q0 11 11 11h50q10 0 12 -9l11 -42q6 -17 19 -1q55 62 140 62q98 0 154 -67.5t56 -184.5q0 -118 -59.5 -186t-164.5 -68q-49 0 -91 19l-27 12v-224q0 -11 -11 -11h-89q-11 0 -11 11zM177 121l30 -14q34 -17 82 -17q58 0 89.5 40.5t31.5 112.5 q0 71 -31.5 111.5t-86.5 40.5t-85 -41t-30 -108v-125z" />
<glyph unicode="q" horiz-adv-x="558" d="M43 242q0 117 61.5 185t169.5 68q70 0 125 -24l88 -36q9 -5 9 -13v-627q0 -11 -11 -11h-89q-11 0 -11 11v130q0 61 16 114q3 8 -1.5 12t-13.5 -4q-52 -58 -133 -58q-98 0 -154 68t-56 185zM153 242q0 -71 30 -111.5t84 -40.5q57 0 88 40t31 109v125l-29 14q-41 17 -83 17 q-58 0 -89.5 -40.5t-31.5 -112.5z" />
<glyph unicode="r" horiz-adv-x="394" d="M67 11v463q0 11 11 11h50q10 0 13 -9l16 -57q9 -16 20 -3q31 40 67.5 59t90.5 20q11 0 11 -11v-78q0 -11 -11 -11q-82 -4 -119.5 -66t-37.5 -199v-119q0 -11 -11 -11h-89q-11 0 -11 11z" />
<glyph unicode="s" horiz-adv-x="476" d="M49 35l23 75q3 10 13 7l36 -10q59 -17 128 -17q37 0 57 13.5t20 36.5q0 35 -47 49l-101 26q-122 31 -122 136q0 68 48 106t135 38q65 0 124 -16l44 -11q11 -3 8 -14l-21 -75q-3 -11 -14 -8l-44 12q-40 12 -97 12q-34 0 -53.5 -12t-19.5 -32q0 -33 45 -46l100 -26 q126 -32 126 -139q0 -71 -50 -111t-138 -40q-79 0 -153 21l-39 11q-11 3 -8 14z" />
<glyph unicode="t" horiz-adv-x="380" d="M42 397v77q0 11 11 11h49v115q0 9 9 12l89 30q13 3 13 -9v-148h112q11 0 11 -11v-77q0 -11 -11 -11h-112v-243q0 -53 39 -53q15 0 26 4q11 5 15 -5l32 -68q7 -15 -22 -23.5t-51 -8.5q-71 0 -110.5 40.5t-39.5 113.5v243h-49q-11 0 -11 11z" />
<glyph unicode="u" d="M62 179v295q0 11 11 11h89q11 0 11 -11v-283q0 -47 23 -74t64 -27q56 0 86.5 39.5t30.5 111.5v233q0 11 11 11h89q11 0 11 -11v-463q0 -11 -11 -11h-50q-11 0 -12 10l-9 40q-8 15 -23 1q-54 -61 -138 -61q-86 0 -134.5 50.5t-48.5 138.5z" />
<glyph unicode="v" horiz-adv-x="550" d="M33 472q-5 13 9 13h93q8 0 13 -8l71 -168q36 -96 48 -165q1 -5 4.5 -7t7 0t4.5 7q11 72 48 165l71 168q5 8 13 8h93q14 0 9 -13l-99 -236q-52 -135 -77 -227q-3 -9 -13 -9h-106q-10 0 -13 9q-23 87 -77 227z" />
<glyph unicode="w" horiz-adv-x="796" d="M40 473q-5 12 9 12h90q10 0 13 -9l51 -175q22 -84 36 -160q1 -5 4.5 -7t7 0t4.5 7q7 27 48 177l53 158q3 9 12 9h60q9 0 12 -9l53 -158q35 -118 48 -177q1 -5 4.5 -7t7 0t4.5 7q12 67 36 160l51 175q3 9 13 9h90q14 0 9 -12l-82 -277q-37 -127 -51 -186q-1 -10 -12 -10 h-110q-11 0 -12 9q-5 19 -15.5 54.5t-14.5 50.5l-36 106q-10 34 -18 73q-1 6 -4 8.5t-6 0t-4 -8.5q-8 -44 -18 -73l-35 -106q-23 -76 -30 -104q-1 -10 -12 -10h-111q-11 0 -12 10q-12 49 -51 186z" />
<glyph unicode="x" horiz-adv-x="536" d="M46 13l111 176q23 38 48 53q3 2 3 3q0 2 -1.5 3.5t-4 3t-3.5 2.5q-24 17 -42 46l-108 172q-7 13 8 13h98q8 0 14 -7l91 -149q8 -13 16 0l91 149q6 7 14 7h98q15 0 8 -13l-108 -172q-24 -39 -47 -50q-9 -4 -1 -8q29 -18 48 -53l111 -176q7 -13 -8 -13h-99q-8 0 -14 7 l-93 151q-8 11 -16 0l-93 -151q-6 -7 -14 -7h-99q-15 0 -8 13z" />
<glyph unicode="y" horiz-adv-x="553" d="M33 472q-5 13 9 13h93q8 0 13 -8l79 -189q31 -82 41 -146q1 -8 7.5 -7.5t8.5 8.5q13 69 43 145l78 189q5 8 13 8h93q14 0 9 -13l-275 -678q-3 -9 -12 -9h-92q-14 0 -9 13l53 126q19 57 14 104t-33 121z" />
<glyph unicode="z" horiz-adv-x="481" d="M52 23q30 42 50 79l133 219q15 32 38 55q9 11 -5 11q-18 -1 -54 -1h-144q-11 0 -11 11v77q0 11 11 11h351q8 0 14 -7v-1q4 -8 -1 -15q-24 -34 -45 -74l-136 -225q-19 -33 -38 -54q-4 -5 -2.5 -8t7.5 -3q10 0 28.5 0.5t26.5 0.5h145q6 0 8.5 -3.5t0.5 -8.5l-22 -78 q-3 -9 -13 -9h-329q-8 0 -13 7.5t0 15.5z" />
<glyph unicode="{" horiz-adv-x="379" d="M57 289v77q0 11 11 11h7q24 0 38 15t14 42v151q0 80 47 126.5t130 49.5q11 0 11 -11v-77q0 -11 -11 -11q-35 -3 -54.5 -23t-19.5 -54v-151q0 -71 -49 -98q-14 -8 0 -17q49 -27 49 -100v-147q0 -35 19.5 -55.5t54.5 -23.5q11 0 11 -11v-77q0 -11 -11 -11 q-84 3 -130.5 49.5t-46.5 128.5v148q0 28 -14 43t-38 15h-7q-11 0 -11 11z" />
<glyph unicode="|" horiz-adv-x="296" d="M97 -205v950q0 11 11 11h81q11 0 11 -11v-950q0 -11 -11 -11h-81q-11 0 -11 11z" />
<glyph unicode="}" horiz-adv-x="379" d="M64 -18q0 11 11 11q35 3 54.5 23.5t19.5 55.5v147q0 73 49 100q14 9 0 17q-49 27 -49 98v151q0 34 -19.5 54t-54.5 23q-11 0 -11 11v77q0 11 11 11q83 -3 130 -49.5t47 -126.5v-151q0 -27 14 -42t38 -15h7q11 0 11 -11v-77q0 -11 -11 -11h-7q-24 0 -38 -15t-14 -43v-148 q0 -82 -46.5 -128.5t-130.5 -49.5q-11 0 -11 11v77z" />
<glyph unicode="~" horiz-adv-x="559" d="M53 278l48 83q40 67 109 67q41 0 71 -24l41 -34q15 -9 27 -9q20 0 29 19l23 39q6 7 14 7h84q7 0 9 -4t-2 -9l-48 -85q-37 -65 -108 -65q-39 0 -70 24l-45 34q-12 9 -23 9q-20 0 -31 -19l-23 -39q-6 -7 -14 -7h-84q-7 0 -9 4t2 9z" />
<glyph unicode="&#xa1;" horiz-adv-x="265" d="M58 421q0 34 18.5 53t51.5 19t51 -19t18 -53t-18 -53t-51 -19t-51.5 19t-18.5 53zM73 33q0 40 9 130.5t10 116.5q0 11 11 11h59q11 0 11 -11q1 -31 9.5 -119.5t8.5 -127.5v-240q0 -11 -11 -11h-96q-11 0 -11 11v240z" />
<glyph unicode="&#xa2;" horiz-adv-x="472" d="M43 457q0 101 46 166t131 82v88q0 11 11 11h81q11 0 11 -11v-86q25 -3 44 -10l44 -12q11 -3 8 -14l-24 -74q-3 -10 -13 -7l-34 9q-36 10 -71 10q-61 0 -93.5 -40t-32.5 -112q0 -73 32.5 -113t93.5 -40q37 0 75 11l35 9q10 3 13 -7l23 -75q3 -11 -8 -14l-44 -12 q-22 -7 -48 -10v-88q0 -11 -11 -11h-81q-11 0 -11 11v91q-84 17 -130.5 82t-46.5 166z" />
<glyph unicode="&#xa3;" horiz-adv-x="589" d="M33 296v78q0 11 11 11h81v102q0 52 16 93.5t45 70t71.5 43.5t93.5 15q56 0 111 -21l30 -10q12 -5 7 -14l-29 -75q-4 -10 -14 -7l-31 11q-39 13 -74 13q-53 0 -84 -31.5t-31 -87.5v-102h150q11 0 11 -11v-78q0 -11 -11 -11h-150v-70q0 -63 -25 -106q-4 -8 -1.5 -12 t10.5 -2q31 5 95 5h215q11 0 11 -11v-78q0 -11 -11 -11h-444q-10 0 -16.5 10t-0.5 19l19 31q37 58 37 142v83h-81q-11 0 -11 11z" />
<glyph unicode="&#xa4;" horiz-adv-x="627" d="M82 134q-8 8 0 16l67 67q-24 42 -24 92q0 49 24 92l-67 67q-8 8 0 16l56 57q8 8 16 0l69 -70q39 25 88 25q50 0 92 -26l69 70q8 8 16 0l57 -57q8 -8 0 -16l-71 -71q24 -40 24 -87q0 -48 -24 -88l71 -71q8 -8 0 -16l-57 -57q-8 -8 -16 0l-70 70q-39 -24 -91 -24 q-49 0 -87 23l-69 -70q-8 -8 -16 0zM216 309q0 -39 27.5 -67t67.5 -28t68 28t28 67q0 40 -28 67.5t-68 27.5t-67.5 -27.5t-27.5 -67.5z" />
<glyph unicode="&#xa5;" horiz-adv-x="684" d="M41 686q-4 5 -1.5 9t8.5 4h101q9 0 13 -7l108 -179q35 -59 64 -135q3 -8 8.5 -8t7.5 8q24 62 64 135l109 179q4 7 13 7h101q6 0 8.5 -4t-1.5 -9l-148 -250l-36 -66h93q11 0 11 -11v-60q0 -11 -11 -11h-131q-10 -27 -16 -57h147q11 0 11 -11v-60q0 -11 -11 -11h-154v-138 q0 -11 -11 -11h-92q-11 0 -11 11v138h-154q-11 0 -11 11v60q0 11 11 11h147q-6 30 -16 57h-131q-11 0 -11 11v60q0 11 11 11h93q-15 30 -36 66z" />
<glyph unicode="&#xa6;" horiz-adv-x="300" d="M97 152q0 11 11 11h85q11 0 11 -11v-357q0 -11 -11 -11h-85q-11 0 -11 11v357zM97 388v357q0 11 11 11h85q11 0 11 -11v-357q0 -11 -11 -11h-85q-11 0 -11 11z" />
<glyph unicode="&#xa7;" horiz-adv-x="609" d="M55 -161l26 74q5 10 14 6l54 -18q76 -26 151 -26q63 0 98 19.5t35 55.5q0 50 -67 75l-161 63q-141 55 -141 180q0 80 76 129q12 8 1 15q-68 53 -68 125q0 81 61.5 126.5t170.5 45.5q77 0 152 -25l57 -19q10 -5 6 -14l-26 -74q-5 -10 -14 -7l-53 17q-68 22 -121 22 q-56 0 -88 -19.5t-32 -54.5q0 -49 69 -76l154 -61q146 -58 146 -182q0 -92 -71 -128q-12 -7 -2 -15q32 -25 48 -53t16 -69q0 -84 -64.5 -130.5t-181.5 -46.5q-88 0 -187 34l-51 17q-12 5 -7 14zM171 273q0 -35 23.5 -58t76.5 -43l77 -30q40 -15 70 6.5t30 59.5q0 68 -92 103 l-84 32q-37 14 -69 -8t-32 -62z" />
<glyph unicode="&#xa8;" horiz-adv-x="383" d="M42 663q0 29 16.5 46t44.5 17q29 0 45.5 -17t16.5 -46q0 -64 -62 -64q-61 0 -61 64zM219 663q0 29 16.5 46t44.5 17q29 0 45.5 -17t16.5 -46q0 -64 -62 -64q-61 0 -61 64z" />
<glyph unicode="&#xa9;" horiz-adv-x="789" d="M43 349q0 162 96.5 261t254.5 99t254.5 -99t96.5 -261t-96.5 -261t-254.5 -99t-254.5 99t-96.5 261zM107 349q0 -133 79 -214.5t208 -81.5q130 0 209 81.5t79 214.5t-79 214.5t-209 81.5q-129 0 -208 -81.5t-79 -214.5zM223 350q0 90 46.5 142.5t125.5 52.5q44 0 83 -13 l20 -7q12 -3 7 -14l-13 -40q-5 -10 -14 -7l-20 7q-30 9 -63 9q-48 0 -75.5 -34t-27.5 -96t27.5 -96.5t75.5 -34.5q39 0 62 9l21 6q10 3 13 -7l14 -40q5 -11 -7 -14l-21 -6q-38 -13 -82 -13q-79 0 -125.5 53t-46.5 143z" />
<glyph unicode="&#xaa;" horiz-adv-x="404" d="M35 424q0 55 37 87t104 32h100v6q0 36 -23 56.5t-66 20.5q-31 0 -63 -9l-26 -8q-11 -3 -14 8l-15 52q-3 11 8 14l28 8q38 12 84 12q80 0 126 -40.5t46 -111.5v-227q0 -11 -11 -11h-41q-11 0 -12 10l-3 18q-4 12 -15 2q-40 -38 -111 -38q-63 0 -98 31.5t-35 87.5zM40 155 v55q0 11 11 11h297q11 0 11 -11v-55q0 -11 -11 -11h-297q-11 0 -11 11zM119 431q0 -23 15.5 -36.5t43.5 -13.5q98 0 98 88v6h-100q-57 0 -57 -44z" />
<glyph unicode="&#xab;" horiz-adv-x="605" d="M68 242v3q0 9 4 14l122 167q6 7 13 7h96q7 0 9.5 -4t-2.5 -9l-128 -177l128 -177q5 -5 2.5 -9t-9.5 -4h-94q-7 0 -13 7l-124 168q-4 5 -4 14zM285 242v3q0 9 4 14l122 167q6 7 13 7h96q7 0 9.5 -4t-2.5 -9l-128 -177l128 -177q5 -5 2.5 -9t-9.5 -4h-94q-7 0 -13 7 l-124 168q-4 5 -4 14z" />
<glyph unicode="&#xad;" horiz-adv-x="437" d="M74 223v77q0 11 11 11h267q11 0 11 -11v-77q0 -11 -11 -11h-267q-11 0 -11 11z" />
<glyph unicode="&#xae;" horiz-adv-x="789" d="M43 349q0 162 96.5 261t254.5 99t254.5 -99t96.5 -261t-96.5 -261t-254.5 -99t-254.5 99t-96.5 261zM107 349q0 -133 79 -214.5t208 -81.5q130 0 209 81.5t79 214.5t-79 214.5t-209 81.5q-129 0 -208 -81.5t-79 -214.5zM264 179v341q0 11 11 11h139q58 0 90 -28.5 t32 -79.5q0 -35 -19.5 -58.5t-49.5 -33.5q-10 -4 -1 -9q35 -21 50 -61l35 -80q7 -13 -8 -13h-47q-8 0 -13 9l-24 59q-16 36 -36.5 51.5t-60.5 15.5h-32v-124q0 -11 -11 -11h-44q-11 0 -11 11zM330 362h62q81 0 81 56q0 50 -59 50h-84v-106z" />
<glyph unicode="&#xaf;" horiz-adv-x="367" d="M50 612v56q0 11 11 11h245q11 0 11 -11v-56q0 -11 -11 -11h-245q-11 0 -11 11z" />
<glyph unicode="&#xb0;" horiz-adv-x="324" d="M27 584q0 62 35.5 97t99.5 35t99.5 -35t35.5 -97q0 -63 -35.5 -98.5t-99.5 -35.5t-99.5 35.5t-35.5 98.5zM111 584q0 -27 13.5 -41.5t37.5 -14.5q51 0 51 56q0 26 -13.5 40.5t-37.5 14.5t-37.5 -14.5t-13.5 -40.5z" />
<glyph unicode="&#xb1;" horiz-adv-x="631" d="M74 306v78q0 11 11 11h179v194q0 11 11 11h81q11 0 11 -11v-194h179q11 0 11 -11v-78q0 -11 -11 -11h-179v-195q0 -11 -11 -11h-81q-11 0 -11 11v195h-179q-11 0 -11 11zM87 -2q0 11 11 11h433q11 0 11 -11v-77q0 -11 -11 -11h-433q-11 0 -11 11v77z" />
<glyph unicode="&#xb4;" horiz-adv-x="300" d="M54 580l68 129q4 8 13 8h101q7 0 9.5 -4t-2.5 -9l-94 -130q-6 -7 -13 -7h-74q-14 0 -8 13z" />
<glyph unicode="&#xb5;" horiz-adv-x="565" d="M67 -204v485q0 11 11 11q-6 0 -6 11v171q0 11 11 11h89q11 0 11 -11v-283q0 -47 23 -74t64 -27q56 0 86.5 39.5t30.5 111.5v233q0 11 11 11h89q11 0 11 -11v-463q0 -11 -11 -11h-50q-11 0 -12 10l-9 40q-8 15 -23 1q-54 -61 -138 -61q-44 0 -77 13v-207q0 -11 -11 -11 h-89q-11 0 -11 11z" />
<glyph unicode="&#xb6;" horiz-adv-x="637" d="M95 507q0 90 52 141t143 51h259q11 0 11 -11v-677q0 -11 -11 -11h-58q-11 0 -11 11v610h-81v-610q0 -11 -11 -11h-59q-11 0 -11 11v306q-89 0 -156 49.5t-67 140.5z" />
<glyph unicode="&#xb7;" horiz-adv-x="245" d="M58 254q0 34 18 53t51 19t51.5 -19t18.5 -53t-18.5 -53t-51.5 -19t-51 19t-18 53z" />
<glyph unicode="&#xb8;" horiz-adv-x="313" d="M69 -199l17 52q5 12 14 7l13 -4q15 -4 29 -4q34 0 34 29t-36 29h-35q-7 0 -12 6t-2 15l25 75q3 9 12 9h43q14 0 9 -13l-18 -43h7q34 0 56.5 -24t22.5 -64q0 -44 -28 -70.5t-78 -26.5q-24 0 -50 8l-17 6q-11 4 -6 13z" />
<glyph unicode="&#xba;" horiz-adv-x="431" d="M35 504q0 91 48.5 145t131.5 54t132 -53.5t49 -145.5t-49 -146t-132 -54q-82 0 -131 54t-49 146zM56 155v55q0 11 11 11h297q11 0 11 -11v-55q0 -11 -11 -11h-297q-11 0 -11 11zM119 504q0 -57 25.5 -89.5t70.5 -32.5q46 0 71.5 32.5t25.5 89.5t-25.5 89.5t-71.5 32.5 q-45 0 -70.5 -32.5t-25.5 -89.5z" />
<glyph unicode="&#xbb;" horiz-adv-x="605" d="M78 66l128 177l-128 177q-5 5 -2.5 9t9.5 4h96q7 0 13 -7l122 -167q4 -5 4 -14v-3q0 -9 -4 -14l-124 -168q-6 -7 -13 -7h-94q-7 0 -9.5 4t2.5 9zM295 66l128 177l-128 177q-5 5 -2.5 9t9.5 4h96q7 0 13 -7l122 -167q4 -5 4 -14v-3q0 -9 -4 -14l-124 -168q-6 -7 -13 -7 h-94q-7 0 -9.5 4t2.5 9z" />
<glyph unicode="&#xbc;" horiz-adv-x="814" d="M24 636q-4 9 6 14l132 50q7 2 15 -2q6 -6 6 -13v-365q0 -11 -11 -11h-60q-11 0 -11 11v222q0 26 3 45q1 5 -1 6t-6 -1l-39 -15q-9 -4 -14 6zM108 13l444 679q6 7 14 7h66q7 0 9 -4t-2 -9l-444 -679q-6 -7 -14 -7h-66q-7 0 -9 4t2 9zM470 105v54q0 7 5 14q20 21 34 42 l95 129q20 30 24 38t13 8h85q11 0 11 -11v-217h32q11 0 11 -11v-46q0 -11 -11 -11h-32v-82q0 -11 -11 -11h-60q-11 0 -11 11v82h-174q-11 0 -11 11zM557 170q-8 -8 5 -8h93v62q0 34 5 64q1 6 -2.5 7t-7.5 -4l-69 -92q-13 -18 -24 -29z" />
<glyph unicode="&#xbd;" horiz-adv-x="858" d="M24 636q-4 9 6 14l132 50q8 3 14.5 -2t6.5 -13v-365q0 -11 -11 -11h-60q-11 0 -11 11v222q0 26 3 45q1 5 -1 6t-6 -1l-39 -15q-9 -4 -14 6zM108 13l444 679q6 7 14 7h66q7 0 9 -4t-2 -9l-444 -679q-6 -7 -14 -7h-66q-7 0 -9 4t2 9zM551 12v36q0 106 77 149l84 49 q24 16 24 34q0 17 -13.5 27t-36.5 10q-30 0 -68 -12l-33 -11q-9 -3 -14 7l-18 54q-3 10 7 13l33 11q46 15 93 15q63 0 98.5 -30t35.5 -84q0 -63 -68 -100l-86 -50q-30 -18 -30 -54h167q11 0 11 -11v-53q0 -11 -11 -11h-241q-11 0 -11 11z" />
<glyph unicode="&#xbe;" horiz-adv-x="913" d="M31 345l18 52q5 10 14 7l32 -10q36 -12 67 -12q30 0 47.5 11.5t17.5 30.5q0 21 -16.5 33t-43.5 12h-28q-11 0 -11 11v54q0 11 11 11h27q47 0 47 40q0 18 -14 30t-38 12q-29 0 -58 -10l-28 -9q-10 -5 -13 7l-18 52q-3 9 7 14l28 10q35 12 82 12q64 0 100 -29t36 -80 q0 -53 -40 -77q-1 -1 -4.5 -1.5t-4.5 -2t-1 -3.5q0 -4 4 -5q59 -27 59 -89q0 -54 -39 -83t-109 -29q-38 0 -91 16l-33 11q-12 3 -7 14zM207 13l444 679q6 7 14 7h66q7 0 9 -4t-2 -9l-444 -679q-6 -7 -14 -7h-66q-7 0 -9 4t2 9zM569 105v54q0 7 5 14q20 21 34 42l95 129 q20 30 24 38t13 8h85q11 0 11 -11v-217h32q11 0 11 -11v-46q0 -11 -11 -11h-32v-82q0 -11 -11 -11h-60q-11 0 -11 11v82h-174q-11 0 -11 11zM656 170q-8 -8 5 -8h93v62q0 34 5 64q1 6 -2.5 7t-7.5 -4l-69 -92q-13 -18 -24 -29z" />
<glyph unicode="&#xbf;" horiz-adv-x="499" d="M33 -44q0 94 99 164l55 39q40 30 40 75v51q0 11 11 11h90q11 0 11 -11v-51q0 -99 -87 -160l-57 -39q-50 -35 -50 -79q0 -33 34 -54.5t86 -21.5q62 0 129 20l58 19q9 3 14 -7l28 -80q5 -10 -7 -13l-59 -20q-87 -26 -163 -26q-111 0 -171.5 48.5t-60.5 134.5zM208 422 q0 34 18.5 53t51.5 19t51 -19t18 -53t-18 -53t-51 -19t-51.5 19t-18.5 53z" />
<glyph unicode="&#xc0;" horiz-adv-x="722" d="M38 13l172 439q51 137 77 237q1 10 12 10h123q10 0 12 -9q27 -103 78 -238l172 -439q5 -13 -9 -13h-96q-9 0 -12 9l-49 125h-314l-49 -125q-3 -9 -12 -9h-96q-14 0 -9 13zM204 887q-5 5 -3.5 9.5t9.5 4.5h121q8 0 14 -7l71 -105q4 -5 2 -9t-9 -4h-87q-8 0 -14 6zM243 235 h236l-53 131q-43 117 -57 185q-1 5 -4.5 7t-7 0t-4.5 -7q-14 -69 -58 -185z" />
<glyph unicode="&#xc1;" horiz-adv-x="722" d="M38 13l172 439q51 137 77 237q1 10 12 10h123q10 0 12 -9q27 -103 78 -238l172 -439q5 -13 -9 -13h-96q-9 0 -12 9l-49 125h-314l-49 -125q-3 -9 -12 -9h-96q-14 0 -9 13zM243 235h236l-53 131q-43 117 -57 185q-1 5 -4.5 7t-7 0t-4.5 -7q-14 -69 -58 -185zM300 789 l71 105q6 7 14 7h121q8 0 9.5 -4.5t-3.5 -9.5l-104 -105q-6 -6 -14 -6h-87q-7 0 -9 4t2 9z" />
<glyph unicode="&#xc2;" horiz-adv-x="722" d="M38 13l172 439q51 137 77 237q1 10 12 10h123q10 0 12 -9q27 -103 78 -238l172 -439q5 -13 -9 -13h-96q-9 0 -12 9l-49 125h-314l-49 -125q-3 -9 -12 -9h-96q-14 0 -9 13zM198 790l94 105q4 6 13 6h110q9 0 13 -6l95 -105q4 -6 2.5 -10t-8.5 -4h-78q-9 0 -14 5l-64 55 l-65 -55q-5 -5 -14 -5h-78q-16 0 -6 14zM243 235h236l-53 131q-43 117 -57 185q-1 5 -4.5 7t-7 0t-4.5 -7q-14 -69 -58 -185z" />
<glyph unicode="&#xc3;" horiz-adv-x="722" d="M38 13l172 439q51 137 77 237q1 10 12 10h123q10 0 12 -9q27 -103 78 -238l172 -439q5 -13 -9 -13h-96q-9 0 -12 9l-49 125h-314l-49 -125q-3 -9 -12 -9h-96q-14 0 -9 13zM183 798l24 44q25 51 88 51q27 0 61 -16l43 -17q23 -7 25 -7q18 0 26 17l8 13q6 7 14 7h59 q15 0 8 -13l-24 -45q-27 -50 -89 -50q-23 0 -59 15l-45 18q-23 7 -25 7q-17 0 -26 -16l-8 -13q-4 -8 -13 -8h-59q-15 0 -8 13zM243 235h236l-53 131q-43 117 -57 185q-1 5 -4.5 7t-7 0t-4.5 -7q-14 -69 -58 -185z" />
<glyph unicode="&#xc4;" horiz-adv-x="722" d="M38 13l172 439q51 137 77 237q1 10 12 10h123q10 0 12 -9q27 -103 78 -238l172 -439q5 -13 -9 -13h-96q-9 0 -12 9l-49 125h-314l-49 -125q-3 -9 -12 -9h-96q-14 0 -9 13zM199 838q0 62 67 62q66 0 66 -62q0 -61 -66 -61q-67 0 -67 61zM243 235h236l-53 131 q-43 117 -57 185q-1 5 -4.5 7t-7 0t-4.5 -7q-14 -69 -58 -185zM388 838q0 62 67 62q66 0 66 -62q0 -61 -66 -61q-67 0 -67 61z" />
<glyph unicode="&#xc5;" horiz-adv-x="722" d="M38 13l172 439q51 137 77 237q1 10 12 10h123q10 0 12 -9q27 -103 78 -238l172 -439q5 -13 -9 -13h-96q-9 0 -12 9l-49 125h-314l-49 -125q-3 -9 -12 -9h-96q-14 0 -9 13zM243 235h236l-53 131q-43 117 -57 185q-1 5 -4.5 7t-7 0t-4.5 -7q-14 -69 -58 -185zM266 836 q0 38 25 59.5t69 21.5q45 0 70 -21.5t25 -59.5q0 -37 -25 -58t-70 -21q-44 0 -69 21t-25 58zM323 836q0 -15 10 -24t27 -9q37 0 37 33q0 34 -37 34t-37 -34z" />
<glyph unicode="&#xc6;" horiz-adv-x="932" d="M38 13l163 414q64 171 86 262q1 10 12 10h574q14 0 9 -12l-22 -80q-3 -9 -13 -9h-367q-13 0 -11 -15q3 -20 23 -74l39 -100h263q11 0 11 -11v-78q0 -11 -11 -11h-224l82 -208h220q11 0 11 -11v-79q0 -11 -11 -11h-293q-9 0 -12 9l-49 125h-314l-49 -125q-3 -9 -12 -9h-96 q-14 0 -9 13zM242 235h237l-60 151q-34 91 -50 164q-1 6 -4.5 8.5t-7 0t-4.5 -8.5q-18 -75 -51 -163z" />
<glyph unicode="&#xc7;" horiz-adv-x="617" d="M51 350q0 166 82 262.5t225 96.5q81 0 146 -23l44 -15q10 -3 7 -13l-26 -77q-3 -10 -13 -7l-45 15q-45 16 -113 17q-91 0 -141.5 -67.5t-50.5 -188.5q0 -122 50.5 -189.5t141.5 -67.5q61 0 114 18l44 15q9 3 14 -7l27 -75q5 -11 -7 -14l-44 -15q-75 -26 -143 -26l-12 -30 h7q34 0 56.5 -24t22.5 -64q0 -44 -28 -70.5t-78 -26.5q-24 0 -50 8l-17 6q-11 4 -6 13l17 52q5 12 14 7l13 -4q15 -4 29 -4q34 0 34 29t-36 29h-35q-7 0 -12 6t-2 15l21 62q-118 20 -184 114t-66 243z" />
<glyph unicode="&#xc8;" horiz-adv-x="606" d="M77 11v677q0 11 11 11h458q13 0 10 -12l-22 -80q-3 -9 -13 -9h-331v-189h278q11 0 11 -11v-78q0 -11 -11 -11h-278v-208h356q11 0 11 -11v-79q0 -11 -11 -11h-458q-11 0 -11 11zM163 887q-3 3 -3.5 6.5t2 5.5t7.5 2h121q8 0 14 -7l71 -105q4 -5 2 -9t-9 -4h-87 q-8 0 -14 6z" />
<glyph unicode="&#xc9;" horiz-adv-x="606" d="M77 11v677q0 11 11 11h458q13 0 10 -12l-22 -80q-3 -9 -13 -9h-331v-189h278q11 0 11 -11v-78q0 -11 -11 -11h-278v-208h356q11 0 11 -11v-79q0 -11 -11 -11h-458q-11 0 -11 11zM258 789l71 105q6 7 14 7h121q8 0 9.5 -4.5t-3.5 -9.5l-104 -105q-6 -6 -14 -6h-87 q-7 0 -9 4t2 9z" />
<glyph unicode="&#xca;" horiz-adv-x="606" d="M77 11v677q0 11 11 11h458q13 0 10 -12l-22 -80q-3 -9 -13 -9h-331v-189h278q11 0 11 -11v-78q0 -11 -11 -11h-278v-208h356q11 0 11 -11v-79q0 -11 -11 -11h-458q-11 0 -11 11zM157 790l94 105q4 6 13 6h110q8 0 13 -6l95 -105q10 -14 -6 -14h-78q-9 0 -14 5l-64 55 l-65 -55q-5 -5 -14 -5h-78q-17 0 -6 14z" />
<glyph unicode="&#xcb;" horiz-adv-x="606" d="M77 11v677q0 11 11 11h458q13 0 10 -12l-22 -80q-3 -9 -13 -9h-331v-189h278q11 0 11 -11v-78q0 -11 -11 -11h-278v-208h356q11 0 11 -11v-79q0 -11 -11 -11h-458q-11 0 -11 11zM158 838q0 62 67 62q66 0 66 -62q0 -61 -66 -61q-67 0 -67 61zM347 838q0 62 67 62 q66 0 66 -62q0 -61 -66 -61q-67 0 -67 61z" />
<glyph unicode="&#xcc;" horiz-adv-x="267" d="M-22 887q-5 5 -3.5 9.5t9.5 4.5h121q8 0 14 -7l71 -105q4 -5 2 -9t-9 -4h-87q-8 0 -14 6zM77 11v677q0 11 11 11h91q11 0 11 -11v-677q0 -11 -11 -11h-91q-11 0 -11 11z" />
<glyph unicode="&#xcd;" horiz-adv-x="267" d="M73 789l71 105q6 7 14 7h121q7 0 9 -4.5t-3 -9.5l-104 -105q-6 -6 -14 -6h-87q-7 0 -9 4t2 9zM77 11v677q0 11 11 11h91q11 0 11 -11v-677q0 -11 -11 -11h-91q-11 0 -11 11z" />
<glyph unicode="&#xce;" horiz-adv-x="267" d="M-28 790l94 105q4 6 13 6h110q9 0 13 -6l95 -105q4 -6 2.5 -10t-8.5 -4h-78q-9 0 -14 5l-64 55l-65 -55q-5 -5 -14 -5h-78q-17 0 -6 14zM77 11v677q0 11 11 11h91q11 0 11 -11v-677q0 -11 -11 -11h-91q-11 0 -11 11z" />
<glyph unicode="&#xcf;" horiz-adv-x="267" d="M-27 838q0 62 67 62q66 0 66 -62q0 -61 -66 -61q-67 0 -67 61zM77 11v677q0 11 11 11h91q11 0 11 -11v-677q0 -11 -11 -11h-91q-11 0 -11 11zM162 838q0 62 67 62q66 0 66 -62q0 -61 -66 -61q-67 0 -67 61z" />
<glyph unicode="&#xd0;" horiz-adv-x="738" d="M32 315v78q0 11 11 11h94v284q0 11 11 11h234q142 0 223.5 -94t81.5 -256q0 -160 -82 -254.5t-223 -94.5h-234q-11 0 -11 11v293h-94q-11 0 -11 11zM250 101h132q89 0 139 65.5t50 182.5q0 118 -50 183.5t-139 65.5h-132v-194h121q11 0 11 -11v-78q0 -11 -11 -11h-121 v-203z" />
<glyph unicode="&#xd1;" horiz-adv-x="718" d="M77 11v677q0 11 11 11h120q8 0 13 -8q22 -49 53 -103l214 -353q19 -36 35 -67q2 -6 6 -7.5t6 2t1 9.5q-8 50 -8 137v379q0 11 11 11h91q11 0 11 -11v-677q0 -11 -11 -11h-120q-8 0 -13 8q-19 46 -52 103l-214 353q-20 35 -35 67q-4 8 -10 6t-4 -10q9 -68 9 -139v-377 q0 -11 -11 -11h-92q-11 0 -11 11zM182 798l24 44q26 51 88 51q27 0 61 -16l43 -17q23 -7 25 -7q17 0 26 17l8 13q6 7 14 7h59q14 0 8 -13l-24 -45q-27 -50 -89 -50q-23 0 -59 15l-45 18q-23 7 -25 7q-17 0 -26 -16l-8 -13q-4 -8 -13 -8h-59q-14 0 -8 13z" />
<glyph unicode="&#xd2;" horiz-adv-x="709" d="M51 350q0 166 81.5 262.5t222.5 96.5t222.5 -96.5t81.5 -262.5q0 -167 -81.5 -264t-222.5 -97t-222.5 97t-81.5 264zM166 350q0 -120 50 -188.5t139 -68.5q88 0 138 68.5t50 188.5q0 121 -49.5 188.5t-138.5 67.5t-139 -67.5t-50 -188.5zM199 887q-3 3 -3.5 6.5t2 5.5 t7.5 2h121q8 0 14 -7l71 -105q4 -5 2 -9t-9 -4h-87q-8 0 -14 6z" />
<glyph unicode="&#xd3;" horiz-adv-x="709" d="M51 350q0 166 81.5 262.5t222.5 96.5t222.5 -96.5t81.5 -262.5q0 -167 -81.5 -264t-222.5 -97t-222.5 97t-81.5 264zM166 350q0 -120 50 -188.5t139 -68.5q88 0 138 68.5t50 188.5q0 121 -49.5 188.5t-138.5 67.5t-139 -67.5t-50 -188.5zM294 789l71 105q6 7 14 7h121 q8 0 9.5 -4.5t-3.5 -9.5l-104 -105q-6 -6 -14 -6h-87q-7 0 -9 4t2 9z" />
<glyph unicode="&#xd4;" horiz-adv-x="709" d="M51 350q0 166 81.5 262.5t222.5 96.5t222.5 -96.5t81.5 -262.5q0 -167 -81.5 -264t-222.5 -97t-222.5 97t-81.5 264zM166 350q0 -120 50 -188.5t139 -68.5q88 0 138 68.5t50 188.5q0 121 -49.5 188.5t-138.5 67.5t-139 -67.5t-50 -188.5zM192 790l94 105q4 6 13 6h110 q9 0 13 -6l95 -105q4 -6 2.5 -10t-8.5 -4h-78q-9 0 -14 5l-64 55l-65 -55q-5 -5 -14 -5h-78q-16 0 -6 14z" />
<glyph unicode="&#xd5;" horiz-adv-x="709" d="M51 350q0 166 81.5 262.5t222.5 96.5t222.5 -96.5t81.5 -262.5q0 -167 -81.5 -264t-222.5 -97t-222.5 97t-81.5 264zM166 350q0 -120 50 -188.5t139 -68.5q88 0 138 68.5t50 188.5q0 121 -49.5 188.5t-138.5 67.5t-139 -67.5t-50 -188.5zM177 798l24 44q25 51 88 51 q27 0 61 -16l43 -17q23 -7 25 -7q18 0 26 17l8 13q6 7 14 7h59q15 0 8 -13l-24 -45q-27 -50 -89 -50q-23 0 -59 15l-45 18q-23 7 -25 7q-17 0 -26 -16l-8 -13q-4 -8 -13 -8h-59q-15 0 -8 13z" />
<glyph unicode="&#xd6;" horiz-adv-x="709" d="M51 350q0 166 81.5 262.5t222.5 96.5t222.5 -96.5t81.5 -262.5q0 -167 -81.5 -264t-222.5 -97t-222.5 97t-81.5 264zM166 350q0 -120 50 -188.5t139 -68.5q88 0 138 68.5t50 188.5q0 121 -49.5 188.5t-138.5 67.5t-139 -67.5t-50 -188.5zM193 838q0 62 67 62q66 0 66 -62 q0 -61 -66 -61q-67 0 -67 61zM382 838q0 62 67 62q66 0 66 -62q0 -61 -66 -61q-67 0 -67 61z" />
<glyph unicode="&#xd7;" horiz-adv-x="627" d="M82 81q-8 8 0 16l159 159l-159 159q-8 8 0 16l56 57q8 8 16 0l160 -159l158 158q8 8 16 0l57 -57q8 -8 0 -16l-159 -158l159 -159q8 -8 0 -16l-57 -57q-8 -8 -16 0l-158 159l-159 -159q-8 -8 -16 0z" />
<glyph unicode="&#xd8;" horiz-adv-x="719" d="M56 350q0 166 81.5 262.5t222.5 96.5q108 0 183 -59l32 42q6 7 13 7h59q7 0 9 -4t-2 -9l-63 -84q73 -96 73 -252q0 -167 -81.5 -264t-222.5 -97q-110 0 -184 60l-32 -42q-6 -7 -13 -7h-58q-7 0 -9 4t2 9l63 84q-73 96 -73 253zM171 350q0 -91 30 -156l276 368 q-46 44 -117 44q-89 0 -139 -67.5t-50 -188.5zM242 137q47 -44 118 -44q88 0 138 68.5t50 188.5q0 94 -30 155z" />
<glyph unicode="&#xd9;" horiz-adv-x="672" d="M67 281v407q0 11 11 11h91q11 0 11 -11v-407q0 -90 41 -139t115 -49t114.5 49t40.5 139v407q0 11 11 11h92q11 0 11 -11v-407q0 -139 -70.5 -215.5t-198.5 -76.5t-198.5 76.5t-70.5 215.5zM180 887q-5 5 -3.5 9.5t9.5 4.5h121q8 0 14 -7l71 -105q4 -5 2 -9t-9 -4h-87 q-8 0 -14 6z" />
<glyph unicode="&#xda;" horiz-adv-x="672" d="M67 281v407q0 11 11 11h91q11 0 11 -11v-407q0 -90 41 -139t115 -49t114.5 49t40.5 139v407q0 11 11 11h92q11 0 11 -11v-407q0 -139 -70.5 -215.5t-198.5 -76.5t-198.5 76.5t-70.5 215.5zM275 789l71 105q6 7 14 7h121q8 0 9.5 -4.5t-3.5 -9.5l-104 -105q-6 -6 -14 -6 h-87q-7 0 -9 4t2 9z" />
<glyph unicode="&#xdb;" horiz-adv-x="672" d="M67 281v407q0 11 11 11h91q11 0 11 -11v-407q0 -90 41 -139t115 -49t114.5 49t40.5 139v407q0 11 11 11h92q11 0 11 -11v-407q0 -139 -70.5 -215.5t-198.5 -76.5t-198.5 76.5t-70.5 215.5zM174 790l94 105q4 6 13 6h110q9 0 13 -6l95 -105q10 -14 -6 -14h-78q-9 0 -14 5 l-64 55l-65 -55q-5 -5 -14 -5h-78q-16 0 -6 14z" />
<glyph unicode="&#xdc;" horiz-adv-x="672" d="M67 281v407q0 11 11 11h91q11 0 11 -11v-407q0 -90 41 -139t115 -49t114.5 49t40.5 139v407q0 11 11 11h92q11 0 11 -11v-407q0 -139 -70.5 -215.5t-198.5 -76.5t-198.5 76.5t-70.5 215.5zM175 838q0 62 67 62q66 0 66 -62q0 -61 -66 -61q-67 0 -67 61zM364 838 q0 62 67 62q66 0 66 -62q0 -61 -66 -61q-67 0 -67 61z" />
<glyph unicode="&#xdd;" horiz-adv-x="674" d="M36 686q-4 5 -1.5 9t8.5 4h101q9 0 13 -7l108 -179q35 -59 64 -135q3 -8 8.5 -8t7.5 8q24 62 64 135l109 179q4 7 13 7h101q6 0 8.5 -4t-1.5 -9l-148 -250q-58 -106 -77.5 -158t-19.5 -132v-135q0 -11 -11 -11h-92q-11 0 -11 11v135q0 80 -19.5 133t-77.5 157zM277 789 l71 105q6 7 14 7h121q7 0 9 -4.5t-3 -9.5l-104 -105q-6 -6 -14 -6h-87q-7 0 -9 4t2 9z" />
<glyph unicode="&#xde;" horiz-adv-x="638" d="M77 11v677q0 11 11 11h91q11 0 11 -11v-107h145q117 0 183 -60t66 -167t-66 -167t-183 -60h-145v-116q0 -11 -11 -11h-91q-11 0 -11 11zM190 228h145q63 0 98.5 33.5t35.5 92.5t-35.5 92.5t-98.5 33.5h-145v-252z" />
<glyph unicode="&#xdf;" horiz-adv-x="612" d="M67 11v474q0 115 61 179t169 64q96 0 148 -43t52 -121q0 -54 -46 -107l-49 -51q-21 -21 -21 -41q0 -26 39 -49l58 -34q52 -33 75 -65t23 -77q0 -71 -46.5 -111t-134.5 -40q-62 0 -118 20l-36 12q-10 3 -7 13l26 76q3 10 13 7l30 -10q45 -17 92 -17q34 0 52.5 13.5 t18.5 36.5q0 27 -40 52l-68 40q-87 52 -87 125q0 54 48 108l43 46q25 26 25 53q0 30 -23.5 46.5t-66.5 16.5q-56 0 -87.5 -37.5t-31.5 -104.5v-474q0 -11 -11 -11h-89q-11 0 -11 11z" />
<glyph unicode="&#xe0;" horiz-adv-x="515" d="M38 140q0 72 47.5 113t134.5 41h125v6q0 94 -113 94q-44 0 -78 -10l-36 -11q-11 -3 -14 8l-22 74q-3 11 8 14l38 11q51 15 109 15q102 0 160 -50.5t58 -140.5v-293q0 -11 -11 -11h-50q-10 0 -13 9l-8 31q-8 18 -25 2q-48 -53 -137 -53q-83 0 -128 40t-45 111zM124 704 q-5 5 -2.5 9t9.5 4h101q9 0 13 -8l68 -129q7 -13 -8 -13h-74q-7 0 -13 7zM148 150q0 -29 19.5 -46t55.5 -17q59 0 90.5 29t31.5 84v7h-125q-72 0 -72 -57z" />
<glyph unicode="&#xe1;" horiz-adv-x="515" d="M38 140q0 72 47.5 113t134.5 41h125v6q0 94 -113 94q-44 0 -78 -10l-36 -11q-11 -3 -14 8l-22 74q-3 11 8 14l38 11q51 15 109 15q102 0 160 -50.5t58 -140.5v-293q0 -11 -11 -11h-50q-10 0 -13 9l-8 31q-8 18 -25 2q-48 -53 -137 -53q-83 0 -128 40t-45 111zM148 150 q0 -29 19.5 -46t55.5 -17q59 0 90.5 29t31.5 84v7h-125q-72 0 -72 -57zM202 580l68 129q4 8 13 8h101q7 0 9.5 -4t-2.5 -9l-94 -130q-6 -7 -13 -7h-74q-14 0 -8 13z" />
<glyph unicode="&#xe2;" horiz-adv-x="515" d="M38 140q0 72 47.5 113t134.5 41h125v6q0 94 -113 94q-44 0 -78 -10l-36 -11q-11 -3 -14 8l-22 74q-3 11 8 14l38 11q51 15 109 15q102 0 160 -50.5t58 -140.5v-293q0 -11 -11 -11h-50q-10 0 -13 9l-8 31q-8 18 -25 2q-48 -53 -137 -53q-83 0 -128 40t-45 111zM110 580 l93 130q6 7 13 7h82q7 0 13 -7l93 -130q4 -5 2.5 -9t-8.5 -4h-67q-9 0 -13 6l-61 69l-61 -69q-4 -6 -13 -6h-67q-7 0 -8.5 4t2.5 9zM148 150q0 -29 19.5 -46t55.5 -17q59 0 90.5 29t31.5 84v7h-125q-72 0 -72 -57z" />
<glyph unicode="&#xe3;" horiz-adv-x="515" d="M38 140q0 72 47.5 113t134.5 41h125v6q0 94 -113 94q-44 0 -78 -10l-36 -11q-11 -3 -14 8l-22 74q-3 11 8 14l38 11q51 15 109 15q102 0 160 -50.5t58 -140.5v-293q0 -11 -11 -11h-50q-10 0 -13 9l-8 31q-8 18 -25 2q-48 -53 -137 -53q-83 0 -128 40t-45 111zM102 622 l23 46q26 53 79 53q29 0 53 -16l37 -23q11 -7 20 -7q11 0 22 18l10 16q4 8 13 8h50q15 0 8 -13l-23 -46q-26 -52 -79 -52q-27 0 -55 18l-35 19q-12 9 -21 9q-11 0 -21 -17l-10 -18q-4 -8 -13 -8h-50q-13 0 -8 13zM148 150q0 -29 19.5 -46t55.5 -17q59 0 90.5 29t31.5 84v7 h-125q-72 0 -72 -57z" />
<glyph unicode="&#xe4;" horiz-adv-x="515" d="M38 140q0 72 47.5 113t134.5 41h125v6q0 94 -113 94q-44 0 -78 -10l-36 -11q-11 -3 -14 8l-22 74q-3 11 8 14l38 11q51 15 109 15q102 0 160 -50.5t58 -140.5v-293q0 -11 -11 -11h-50q-10 0 -13 9l-8 31q-8 18 -25 2q-48 -53 -137 -53q-83 0 -128 40t-45 111zM107 663 q0 29 16.5 46t44.5 17q29 0 45.5 -17t16.5 -46q0 -64 -62 -64q-61 0 -61 64zM148 150q0 -29 19.5 -46t55.5 -17q59 0 90.5 29t31.5 84v7h-125q-72 0 -72 -57zM284 663q0 29 16.5 46t44.5 17q29 0 45.5 -17t16.5 -46q0 -64 -62 -64q-61 0 -61 64z" />
<glyph unicode="&#xe5;" horiz-adv-x="515" d="M38 140q0 72 47.5 113t134.5 41h125v6q0 94 -113 94q-44 0 -78 -10l-36 -11q-11 -3 -14 8l-22 74q-3 11 8 14l38 11q51 15 109 15q102 0 160 -50.5t58 -140.5v-293q0 -11 -11 -11h-50q-10 0 -13 9l-8 31q-8 18 -25 2q-48 -53 -137 -53q-83 0 -128 40t-45 111zM148 150 q0 -29 19.5 -46t55.5 -17q59 0 90.5 29t31.5 84v7h-125q-72 0 -72 -57zM165 642q0 39 24.5 61.5t67.5 22.5t67.5 -22.5t24.5 -61.5t-24.5 -61t-67.5 -22t-67.5 22t-24.5 61zM217 642q0 -35 40 -35t40 35t-40 35t-40 -35z" />
<glyph unicode="&#xe6;" horiz-adv-x="811" d="M38 140q0 72 48 112.5t135 40.5h124v14q0 39 -29 63.5t-80 24.5q-45 0 -81 -11l-37 -11q-11 -3 -14 8l-22 73q-3 11 8 14l48 14q46 13 99 13q109 0 165 -75q10 -10 19 0q55 75 155 75q94 0 143 -42.5t49 -114.5q0 -60 -38 -93.5t-117 -45.5l-147 -24q10 -39 39 -62 t71 -23q45 0 85 10l43 11q11 3 14 -8l20 -75q3 -11 -8 -14l-45 -11q-53 -14 -109 -14q-109 0 -166 85q-9 13 -18 1q-57 -86 -175 -86q-84 0 -131.5 40.5t-47.5 110.5zM148 150q0 -29 20 -46t56 -17q61 0 91 29t30 92h-128q-32 0 -50.5 -15t-18.5 -43zM457 262l141 22 q62 10 62 52q0 25 -21 42t-63 17q-109 0 -119 -133z" />
<glyph unicode="&#xe7;" horiz-adv-x="474" d="M43 243q0 118 62 185t178 67q45 0 86 -12l43 -12q11 -3 8 -14l-23 -75q-3 -10 -13 -7l-34 9q-34 11 -67 11q-130 0 -130 -151q0 -74 32.5 -114t95.5 -40q35 0 74 11l33 10q11 3 14 -7l23 -75q3 -11 -8 -14l-44 -13q-49 -13 -93 -13l-12 -30h7q34 0 56.5 -24t22.5 -64 q0 -44 -28 -70.5t-78 -26.5q-24 0 -50 8l-17 6q-11 4 -6 13l17 52q5 12 14 7l13 -4q15 -4 29 -4q34 0 34 29t-36 29h-35q-7 0 -12 6t-2 15l21 64q-84 17 -129.5 82t-45.5 166z" />
<glyph unicode="&#xe8;" horiz-adv-x="511" d="M43 242q0 118 61.5 185.5t170.5 67.5q90 0 141.5 -42.5t51.5 -116.5q0 -114 -147 -136l-157 -24q8 -40 37.5 -63t76.5 -23q49 0 79 10l44 11q11 3 14 -8l20 -75q3 -11 -8 -14l-46 -12q-52 -13 -102 -13q-112 0 -174 67.5t-62 185.5zM129 704q-5 5 -2.5 9t9.5 4h101 q9 0 13 -8l68 -129q6 -13 -8 -13h-74q-7 0 -13 7zM154 262l150 24q54 9 54 48q0 61 -85 61q-107 0 -119 -133z" />
<glyph unicode="&#xe9;" horiz-adv-x="511" d="M43 242q0 118 61.5 185.5t170.5 67.5q90 0 141.5 -42.5t51.5 -116.5q0 -114 -147 -136l-157 -24q8 -40 37.5 -63t76.5 -23q49 0 79 10l44 11q11 3 14 -8l20 -75q3 -11 -8 -14l-46 -12q-52 -13 -102 -13q-112 0 -174 67.5t-62 185.5zM154 262l150 24q54 9 54 48 q0 61 -85 61q-107 0 -119 -133zM207 580l68 129q4 8 13 8h101q7 0 9.5 -4t-2.5 -9l-94 -130q-6 -7 -13 -7h-74q-15 0 -8 13z" />
<glyph unicode="&#xea;" horiz-adv-x="511" d="M43 242q0 118 61.5 185.5t170.5 67.5q90 0 141.5 -42.5t51.5 -116.5q0 -114 -147 -136l-157 -24q8 -40 37.5 -63t76.5 -23q49 0 79 10l44 11q11 3 14 -8l20 -75q3 -11 -8 -14l-46 -12q-52 -13 -102 -13q-112 0 -174 67.5t-62 185.5zM115 580l93 130q6 7 13 7h82 q7 0 13 -7l93 -130q4 -5 2.5 -9t-8.5 -4h-67q-8 0 -13 6l-61 69l-61 -69q-5 -6 -13 -6h-67q-7 0 -8.5 4t2.5 9zM154 262l150 24q54 9 54 48q0 61 -85 61q-107 0 -119 -133z" />
<glyph unicode="&#xeb;" horiz-adv-x="511" d="M43 242q0 118 61.5 185.5t170.5 67.5q90 0 141.5 -42.5t51.5 -116.5q0 -114 -147 -136l-157 -24q8 -40 37.5 -63t76.5 -23q49 0 79 10l44 11q11 3 14 -8l20 -75q3 -11 -8 -14l-46 -12q-52 -13 -102 -13q-112 0 -174 67.5t-62 185.5zM112 663q0 29 16.5 46t44.5 17 q29 0 45.5 -17t16.5 -46q0 -64 -62 -64q-61 0 -61 64zM154 262l150 24q54 9 54 48q0 61 -85 61q-107 0 -119 -133zM289 663q0 29 16.5 46t44.5 17q29 0 45.5 -17t16.5 -46q0 -64 -62 -64q-61 0 -61 64z" />
<glyph unicode="&#xec;" horiz-adv-x="280" d="M36 704q-6 13 8 13h94q10 0 13 -9l41 -129q3 -12 -9 -12h-68q-9 0 -13 8zM42 397v77q0 11 11 11h149q11 0 11 -11v-463q0 -11 -11 -11h-89q-11 0 -11 11v375h-49q-11 0 -11 11z" />
<glyph unicode="&#xed;" horiz-adv-x="280" d="M42 397v77q0 11 11 11h149q11 0 11 -11v-463q0 -11 -11 -11h-89q-11 0 -11 11v375h-49q-11 0 -11 11zM95 579l41 129q3 9 13 9h94q15 0 8 -13l-66 -129q-4 -8 -13 -8h-68q-12 0 -9 12z" />
<glyph unicode="&#xee;" horiz-adv-x="280" d="M13 580l73 129q4 8 13 8h87q9 0 13 -8l73 -129q4 -5 2 -9t-9 -4h-64q-7 0 -13 7l-45 63l-45 -63q-6 -7 -13 -7h-64q-15 0 -8 13zM42 397v77q0 11 11 11h149q11 0 11 -11v-463q0 -11 -11 -11h-89q-11 0 -11 11v375h-49q-11 0 -11 11z" />
<glyph unicode="&#xef;" horiz-adv-x="280" d="M-2 666q0 29 16.5 46t44.5 17q29 0 45.5 -17t16.5 -46q0 -64 -62 -64q-61 0 -61 64zM42 397v77q0 11 11 11h149q11 0 11 -11v-463q0 -11 -11 -11h-89q-11 0 -11 11v375h-49q-11 0 -11 11zM162 666q0 29 16.5 46t44.5 17q29 0 45.5 -17t16.5 -46q0 -64 -62 -64 q-61 0 -61 64z" />
<glyph unicode="&#xf0;" horiz-adv-x="553" d="M43 230q0 110 57.5 174t154.5 64q70 0 112 -33q10 -8 14.5 -3.5t-1.5 13.5q-33 57 -94 116l-93 -42q-11 -5 -15 5l-12 24q-5 10 5 15l76 35q-22 20 -62 57.5t-51 47.5q-5 5 -3.5 9.5t9.5 4.5h122q7 0 14 -5l59 -54l13 -13l93 43q11 5 15 -5l12 -26q5 -10 -5 -15l-78 -35 q120 -141 120 -345q0 -131 -59.5 -201.5t-174.5 -70.5q-106 0 -167 64.5t-61 175.5zM153 229q0 -65 32 -102t89 -37t89 37t32 102q0 66 -32 102.5t-89 36.5t-89 -36.5t-32 -102.5z" />
<glyph unicode="&#xf1;" d="M67 11v463q0 11 11 11h50q11 0 12 -10l9 -40q8 -15 23 -1q54 61 138 61q86 0 134.5 -50.5t48.5 -138.5v-295q0 -11 -11 -11h-89q-11 0 -11 11v283q0 47 -23 74t-64 27q-56 0 -86.5 -39.5t-30.5 -111.5v-233q0 -11 -11 -11h-89q-11 0 -11 11zM122 622l23 46q26 53 79 53 q29 0 53 -16l37 -23q11 -7 20 -7q11 0 22 18l10 16q4 8 13 8h50q15 0 8 -13l-23 -46q-26 -52 -79 -52q-27 0 -55 18l-35 19q-12 9 -21 9q-11 0 -21 -17l-10 -18q-4 -8 -13 -8h-50q-13 0 -8 13z" />
<glyph unicode="&#xf2;" horiz-adv-x="547" d="M43 243q0 116 62 184t169 68q106 0 168 -68t62 -184q0 -117 -62 -185.5t-168 -68.5q-107 0 -169 68.5t-62 185.5zM141 704q-5 5 -2.5 9t9.5 4h101q9 0 13 -8l68 -129q6 -13 -8 -13h-74q-7 0 -13 7zM153 243q0 -72 32 -112.5t89 -40.5q56 0 88 40.5t32 112.5 q0 71 -32 111.5t-88 40.5q-57 0 -89 -40.5t-32 -111.5z" />
<glyph unicode="&#xf3;" horiz-adv-x="547" d="M43 243q0 116 62 184t169 68q106 0 168 -68t62 -184q0 -117 -62 -185.5t-168 -68.5q-107 0 -169 68.5t-62 185.5zM153 243q0 -72 32 -112.5t89 -40.5q56 0 88 40.5t32 112.5q0 71 -32 111.5t-88 40.5q-57 0 -89 -40.5t-32 -111.5zM219 580l68 129q4 8 13 8h101 q7 0 9.5 -4t-2.5 -9l-94 -130q-6 -7 -13 -7h-74q-15 0 -8 13z" />
<glyph unicode="&#xf4;" horiz-adv-x="547" d="M43 243q0 116 62 184t169 68q106 0 168 -68t62 -184q0 -117 -62 -185.5t-168 -68.5q-107 0 -169 68.5t-62 185.5zM126 580l93 130q6 7 13 7h82q7 0 13 -7l93 -130q4 -5 2.5 -9t-8.5 -4h-67q-9 0 -13 6l-61 69l-61 -69q-5 -6 -13 -6h-67q-7 0 -8.5 4t2.5 9zM153 243 q0 -72 32 -112.5t89 -40.5q56 0 88 40.5t32 112.5q0 71 -32 111.5t-88 40.5q-57 0 -89 -40.5t-32 -111.5z" />
<glyph unicode="&#xf5;" horiz-adv-x="547" d="M43 243q0 116 62 184t169 68q106 0 168 -68t62 -184q0 -117 -62 -185.5t-168 -68.5q-107 0 -169 68.5t-62 185.5zM119 622l23 46q26 53 79 53q29 0 53 -16l37 -23q11 -7 20 -7q11 0 22 18l10 16q4 8 13 8h50q14 0 8 -13l-23 -46q-26 -52 -79 -52q-27 0 -55 18l-35 19 q-12 9 -21 9q-11 0 -21 -17l-10 -18q-4 -8 -13 -8h-50q-13 0 -8 13zM153 243q0 -72 32 -112.5t89 -40.5q56 0 88 40.5t32 112.5q0 71 -32 111.5t-88 40.5q-57 0 -89 -40.5t-32 -111.5z" />
<glyph unicode="&#xf6;" horiz-adv-x="547" d="M43 243q0 116 62 184t169 68q106 0 168 -68t62 -184q0 -117 -62 -185.5t-168 -68.5q-107 0 -169 68.5t-62 185.5zM124 663q0 29 16.5 46t44.5 17q29 0 45.5 -17t16.5 -46q0 -64 -62 -64q-61 0 -61 64zM153 243q0 -72 32 -112.5t89 -40.5q56 0 88 40.5t32 112.5 q0 71 -32 111.5t-88 40.5q-57 0 -89 -40.5t-32 -111.5zM301 663q0 29 16.5 46t44.5 17q29 0 45.5 -17t16.5 -46q0 -64 -62 -64q-61 0 -61 64z" />
<glyph unicode="&#xf8;" horiz-adv-x="547" d="M43 243q0 116 62 184t169 68q79 0 135 -39l19 23q4 6 13 6h43q7 0 8.5 -4t-2.5 -9l-42 -52q56 -68 56 -177q0 -117 -62 -185.5t-168 -68.5q-82 0 -138 41l-19 -24q-5 -6 -13 -6h-44q-7 0 -8.5 4t2.5 9l43 54q-54 66 -54 176zM147 243q0 -52 19 -90l178 222q-29 20 -70 20 q-59 0 -93 -40.5t-34 -111.5zM201 111q30 -21 73 -21q59 0 92.5 40.5t33.5 112.5q0 54 -20 91z" />
<glyph unicode="&#xf9;" d="M62 179v295q0 11 11 11h89q11 0 11 -11v-283q0 -47 23 -74t64 -27q56 0 86.5 39.5t30.5 111.5v233q0 11 11 11h89q11 0 11 -11v-463q0 -11 -11 -11h-50q-11 0 -12 10l-9 40q-8 15 -23 1q-54 -61 -138 -61q-86 0 -134.5 50.5t-48.5 138.5zM142 704q-5 5 -2.5 9t9.5 4h101 q9 0 13 -8l68 -129q7 -13 -8 -13h-74q-7 0 -13 7z" />
<glyph unicode="&#xfa;" d="M62 179v295q0 11 11 11h89q11 0 11 -11v-283q0 -47 23 -74t64 -27q56 0 86.5 39.5t30.5 111.5v233q0 11 11 11h89q11 0 11 -11v-463q0 -11 -11 -11h-50q-11 0 -12 10l-9 40q-8 15 -23 1q-54 -61 -138 -61q-86 0 -134.5 50.5t-48.5 138.5zM220 580l68 129q4 8 13 8h101 q7 0 9.5 -4t-2.5 -9l-94 -130q-6 -7 -13 -7h-74q-14 0 -8 13z" />
<glyph unicode="&#xfb;" d="M62 179v295q0 11 11 11h89q11 0 11 -11v-283q0 -47 23 -74t64 -27q56 0 86.5 39.5t30.5 111.5v233q0 11 11 11h89q11 0 11 -11v-463q0 -11 -11 -11h-50q-11 0 -12 10l-9 40q-8 15 -23 1q-54 -61 -138 -61q-86 0 -134.5 50.5t-48.5 138.5zM128 580l93 130q6 7 13 7h82 q7 0 13 -7l93 -130q4 -5 2.5 -9t-8.5 -4h-67q-9 0 -13 6l-61 69l-61 -69q-4 -6 -13 -6h-67q-7 0 -8.5 4t2.5 9z" />
<glyph unicode="&#xfc;" d="M62 179v295q0 11 11 11h89q11 0 11 -11v-283q0 -47 23 -74t64 -27q56 0 86.5 39.5t30.5 111.5v233q0 11 11 11h89q11 0 11 -11v-463q0 -11 -11 -11h-50q-11 0 -12 10l-9 40q-8 15 -23 1q-54 -61 -138 -61q-86 0 -134.5 50.5t-48.5 138.5zM125 663q0 29 16.5 46t44.5 17 q29 0 45.5 -17t16.5 -46q0 -64 -62 -64q-61 0 -61 64zM302 663q0 29 16.5 46t44.5 17q29 0 45.5 -17t16.5 -46q0 -64 -62 -64q-61 0 -61 64z" />
<glyph unicode="&#xfd;" horiz-adv-x="553" d="M33 472q-5 13 9 13h93q8 0 13 -8l79 -189q31 -82 41 -146q1 -8 7.5 -7.5t8.5 8.5q13 69 43 145l78 189q5 8 13 8h93q14 0 9 -13l-275 -678q-3 -9 -12 -9h-92q-14 0 -9 13l53 126q19 57 14 104t-33 121zM217 580l68 129q4 8 13 8h101q7 0 9.5 -4t-2.5 -9l-94 -130 q-6 -7 -13 -7h-74q-15 0 -8 13z" />
<glyph unicode="&#xfe;" horiz-adv-x="563" d="M67 -205v911q0 11 11 11h89q11 0 11 -11v-146q0 -65 -16 -114q-3 -8 1.5 -11.5t12.5 2.5q52 58 129 58q102 0 158.5 -67.5t56.5 -184.5q0 -118 -60 -186t-164 -68q-49 0 -91 19l-27 12v-225q0 -11 -11 -11h-89q-11 0 -11 11zM177 121l30 -14q36 -17 82 -17q57 0 89 40.5 t32 112.5q0 71 -31.5 111.5t-86.5 40.5t-85 -40.5t-30 -108.5v-125z" />
<glyph unicode="&#xff;" horiz-adv-x="553" d="M33 472q-5 13 9 13h93q8 0 13 -8l79 -189q31 -82 41 -146q1 -8 7.5 -7.5t8.5 8.5q13 69 43 145l78 189q5 8 13 8h93q14 0 9 -13l-275 -678q-3 -9 -12 -9h-92q-14 0 -9 13l53 126q19 57 14 104t-33 121zM123 663q0 29 16.5 46t44.5 17q29 0 45.5 -17t16.5 -46 q0 -64 -62 -64q-61 0 -61 64zM300 663q0 29 16.5 46t44.5 17q29 0 45.5 -17t16.5 -46q0 -64 -62 -64q-61 0 -61 64z" />
<glyph unicode="&#x152;" horiz-adv-x="1058" d="M51 349q0 167 80 263.5t218 96.5q114 0 180 -73q21 -21 21 8v44q0 11 11 11h442q13 0 10 -12l-22 -80q-3 -9 -13 -9h-332v-189h279q11 0 11 -11v-78q0 -11 -11 -11h-279v-208h357q11 0 11 -11v-79q0 -11 -11 -11h-442q-11 0 -11 11v47q0 26 -21 5q-63 -74 -180 -74 q-138 0 -218 96.5t-80 263.5zM166 349q0 -120 48.5 -188t134.5 -68q183 0 183 256q0 257 -183 257q-86 0 -134.5 -68t-48.5 -189z" />
<glyph unicode="&#x153;" horiz-adv-x="860" d="M43 243q0 117 61.5 184.5t169.5 67.5q112 0 166 -86q9 -13 18 0q57 86 168 86q90 0 140.5 -43t50.5 -118q0 -111 -152 -135l-149 -24q7 -38 37.5 -61.5t72.5 -23.5q46 0 86 10l39 10q11 3 14 -8l20 -75q3 -11 -8 -14l-43 -11q-50 -13 -108 -13q-111 0 -168 87 q-9 14 -18 0q-55 -87 -166 -87q-108 0 -169.5 68t-61.5 186zM153 243q0 -72 32 -112.5t89 -40.5t89 41t32 112t-32 111.5t-89 40.5t-89 -40.5t-32 -111.5zM507 262l145 23q57 11 57 49q0 28 -21.5 44.5t-59.5 16.5q-111 0 -121 -133z" />
<glyph unicode="&#x178;" horiz-adv-x="674" d="M36 686q-4 5 -1.5 9t8.5 4h101q9 0 13 -7l108 -179q35 -59 64 -135q3 -8 8.5 -8t7.5 8q24 62 64 135l109 179q4 7 13 7h101q6 0 8.5 -4t-1.5 -9l-148 -250q-58 -106 -77.5 -158t-19.5 -132v-135q0 -11 -11 -11h-92q-11 0 -11 11v135q0 80 -19.5 133t-77.5 157zM176 838 q0 62 67 62q66 0 66 -62q0 -61 -66 -61q-67 0 -67 61zM365 838q0 62 67 62q66 0 66 -62q0 -61 -66 -61q-67 0 -67 61z" />
<glyph unicode="&#x2c6;" horiz-adv-x="410" d="M58 580l93 130q6 7 13 7h82q7 0 13 -7l93 -130q4 -5 2.5 -9t-8.5 -4h-67q-9 0 -13 6l-61 69l-61 -69q-4 -6 -13 -6h-67q-7 0 -8.5 4t2.5 9z" />
<glyph unicode="&#x2dc;" horiz-adv-x="423" d="M54 622l23 46q26 53 79 53q29 0 53 -16l37 -23q11 -7 20 -7q11 0 22 18l10 16q4 8 13 8h50q15 0 8 -13l-23 -46q-26 -52 -79 -52q-27 0 -55 18l-35 19q-12 9 -21 9q-11 0 -21 -17l-10 -18q-4 -8 -13 -8h-50q-13 0 -8 13z" />
<glyph unicode="&#x2000;" horiz-adv-x="458" />
<glyph unicode="&#x2001;" horiz-adv-x="917" />
<glyph unicode="&#x2002;" horiz-adv-x="458" />
<glyph unicode="&#x2003;" horiz-adv-x="917" />
<glyph unicode="&#x2004;" horiz-adv-x="305" />
<glyph unicode="&#x2005;" horiz-adv-x="229" />
<glyph unicode="&#x2006;" horiz-adv-x="152" />
<glyph unicode="&#x2007;" horiz-adv-x="152" />
<glyph unicode="&#x2008;" horiz-adv-x="114" />
<glyph unicode="&#x2009;" horiz-adv-x="183" />
<glyph unicode="&#x200a;" horiz-adv-x="50" />
<glyph unicode="&#x2010;" horiz-adv-x="437" d="M74 223v77q0 11 11 11h267q11 0 11 -11v-77q0 -11 -11 -11h-267q-11 0 -11 11z" />
<glyph unicode="&#x2011;" horiz-adv-x="437" d="M74 223v77q0 11 11 11h267q11 0 11 -11v-77q0 -11 -11 -11h-267q-11 0 -11 11z" />
<glyph unicode="&#x2012;" horiz-adv-x="437" d="M74 223v77q0 11 11 11h267q11 0 11 -11v-77q0 -11 -11 -11h-267q-11 0 -11 11z" />
<glyph unicode="&#x2013;" horiz-adv-x="685" d="M74 223v77q0 11 11 11h516q11 0 11 -11v-77q0 -11 -11 -11h-516q-11 0 -11 11z" />
<glyph unicode="&#x2014;" horiz-adv-x="817" d="M74 223v77q0 11 11 11h647q11 0 11 -11v-77q0 -11 -11 -11h-647q-11 0 -11 11z" />
<glyph unicode="&#x2018;" horiz-adv-x="231" d="M47 578q0 45 42 98l32 42h67l-43 -57q-18 -22 4 -32q36 -18 36 -60q0 -31 -18.5 -49t-50.5 -18q-33 0 -51 20t-18 56z" />
<glyph unicode="&#x2019;" horiz-adv-x="231" d="M43 507l43 57q18 22 -4 32q-36 18 -36 60q0 31 18.5 49t50.5 18q33 0 51 -20t18 -56q0 -45 -42 -98l-32 -42h-67z" />
<glyph unicode="&#x201a;" horiz-adv-x="231" d="M43 -83l43 57q18 22 -4 32q-36 18 -36 60q0 31 18.5 49t50.5 18q33 0 51 -20t18 -56q0 -45 -42 -98l-32 -42h-67z" />
<glyph unicode="&#x201c;" horiz-adv-x="418" d="M47 578q0 45 42 98l32 42h67l-43 -57q-18 -22 4 -32q36 -18 36 -60q0 -31 -18.5 -49t-50.5 -18q-33 0 -51 20t-18 56zM235 578q0 45 42 98l32 42h67l-43 -57q-18 -22 4 -32q36 -18 36 -60q0 -31 -18.5 -49t-50.5 -18q-33 0 -51 20t-18 56z" />
<glyph unicode="&#x201d;" horiz-adv-x="419" d="M43 507l43 57q18 22 -4 32q-36 18 -36 60q0 31 18.5 49t50.5 18q33 0 51 -20t18 -56q0 -45 -42 -98l-32 -42h-67zM231 507l43 57q18 22 -4 32q-36 18 -36 60q0 31 18.5 49t50.5 18q33 0 51 -20t18 -56q0 -45 -42 -98l-32 -42h-67z" />
<glyph unicode="&#x201e;" horiz-adv-x="419" d="M43 -83l43 57q18 22 -4 32q-36 18 -36 60q0 31 18.5 49t50.5 18q33 0 51 -20t18 -56q0 -45 -42 -98l-32 -42h-67zM231 -83l43 57q18 22 -4 32q-36 18 -36 60q0 31 18.5 49t50.5 18q33 0 51 -20t18 -56q0 -45 -42 -98l-32 -42h-67z" />
<glyph unicode="&#x2022;" horiz-adv-x="397" d="M87 348q0 57 29 88t82 31q54 0 83 -31t29 -88q0 -56 -29 -86t-83 -30q-53 0 -82 30.5t-29 85.5z" />
<glyph unicode="&#x2026;" horiz-adv-x="633" d="M58 61q0 34 18 53t51 19t51.5 -19t18.5 -53t-18.5 -53t-51.5 -19t-51 19t-18 53zM252 61q0 34 18 53t51 19t51.5 -19t18.5 -53t-18.5 -53t-51.5 -19t-51 19t-18 53zM446 61q0 34 18 53t51 19t51.5 -19t18.5 -53t-18.5 -53t-51.5 -19t-51 19t-18 53z" />
<glyph unicode="&#x202f;" horiz-adv-x="183" />
<glyph unicode="&#x2039;" horiz-adv-x="388" d="M68 242v3q0 9 4 14l122 167q6 7 13 7h96q7 0 9.5 -4t-2.5 -9l-128 -177l128 -177q5 -5 2.5 -9t-9.5 -4h-94q-7 0 -13 7l-124 168q-4 5 -4 14z" />
<glyph unicode="&#x203a;" horiz-adv-x="388" d="M78 66l128 177l-128 177q-5 5 -2.5 9t9.5 4h96q7 0 13 -7l122 -167q4 -5 4 -14v-3q0 -9 -4 -14l-124 -168q-6 -7 -13 -7h-94q-7 0 -9.5 4t2.5 9z" />
<glyph unicode="&#x205f;" horiz-adv-x="229" />
<glyph unicode="&#x20ac;" horiz-adv-x="687" d="M41 257v55q0 11 11 11h71l-1 27q0 24 1 36h-71q-11 0 -11 11v55q0 11 11 11h81q26 116 103 181t193 65q81 0 146 -23l44 -15q10 -3 7 -13l-26 -77q-3 -10 -13 -7l-45 15q-45 16 -113 17q-66 0 -112 -37t-66 -106h227q14 0 9 -13l-22 -55q-3 -9 -12 -9h-215q-1 -12 -1 -36 l1 -27h190q14 0 9 -13l-21 -55q-3 -9 -12 -9h-155q18 -74 64.5 -113.5t115.5 -39.5q61 0 114 18l44 15q9 3 14 -7l27 -75q5 -11 -7 -14l-44 -15q-74 -26 -148 -26q-119 0 -196.5 67.5t-100.5 189.5h-80q-11 0 -11 11z" />
<glyph unicode="&#x2122;" horiz-adv-x="924" d="M24 633v55q0 11 11 11h328q11 0 11 -11v-55q0 -11 -11 -11h-124v-303q0 -11 -11 -11h-60q-11 0 -11 11v303h-122q-11 0 -11 11zM442 319v369q0 11 11 11h95q9 0 12 -9q2 -6 8 -18.5t8 -17.5l43 -90q2 -6 15 -38.5t16 -45.5q3 -10 8 0q7 26 32 84l43 90q5 17 13 36 q3 9 12 9h97q11 0 11 -11v-369q0 -11 -11 -11h-60q-11 0 -11 11v134q0 86 8 129q2 6 -2.5 7.5t-6.5 -4.5q-3 -8 -10.5 -24.5t-9.5 -20.5l-51 -109q-3 -7 -9.5 -22t-9.5 -21q-3 -9 -12 -9h-55q-9 0 -12 9q-9 24 -18 43l-51 109q-9 21 -21 45q-3 6 -6.5 4.5t-2.5 -7.5 q9 -49 9 -129v-134q0 -11 -11 -11h-60q-11 0 -11 11z" />
<glyph unicode="&#xe000;" horiz-adv-x="485" d="M0 0v485h485v-485h-485z" />
</font>
</defs>
</svg>
