<?xml version="1.0" standalone="no"?>
<!DOCTYPE svg PUBLIC "-//W3C//DTD SVG 1.1//EN" "http://www.w3.org/Graphics/SVG/1.1/DTD/svg11.dtd" >
<svg xmlns="http://www.w3.org/2000/svg">
<metadata></metadata>
<defs>
<font id="nerislight" horiz-adv-x="556" >
<font-face units-per-em="1000" ascent="755" descent="-245" />
<missing-glyph horiz-adv-x="215" />
<glyph horiz-adv-x="1000" />
<glyph horiz-adv-x="1000" />
<glyph unicode="&#xd;" horiz-adv-x="394" />
<glyph unicode=" "  horiz-adv-x="215" />
<glyph unicode="&#x09;" horiz-adv-x="215" />
<glyph unicode="&#xa0;" horiz-adv-x="215" />
<glyph unicode="!" horiz-adv-x="237" d="M75 40q0 50 48 50q23 0 36 -13.5t13 -36.5t-13 -36.5t-36 -13.5q-48 0 -48 50zM85 384v296q0 9 9 9h49q9 0 9 -9v-296q0 -39 -4 -116t-5 -102q0 -9 -9 -9h-31q-9 0 -9 9q-1 25 -5 102t-4 116z" />
<glyph unicode="&#x22;" horiz-adv-x="311" d="M57 654v44q0 9 9 9h50q9 0 9 -9v-44q0 -15 -4.5 -52t-5.5 -49q-1 -9 -10 -9h-27q-8 0 -10 8q-1 8 -6 47t-5 55zM186 654v44q0 9 9 9h50q9 0 9 -9v-44q0 -15 -4.5 -52t-5.5 -49q-2 -9 -10 -9h-27q-8 0 -10 8q-1 8 -6 47t-5 55z" />
<glyph unicode="#" horiz-adv-x="727" d="M53 160l7 41q2 8 9 8h104l39 271h-104q-10 0 -8 9l4 41q2 9 10 9h106l20 141q2 8 9 8h43q11 0 9 -10l-20 -139h218l20 141q2 8 9 8h44q11 0 9 -10l-20 -139h104q9 0 8 -9l-4 -41q-1 -9 -10 -9h-106l-39 -271h106q9 0 9 -10l-7 -41q-2 -8 -9 -8h-107l-20 -142q-2 -8 -9 -8 h-44q-11 0 -9 10l20 140h-217l-20 -142q-2 -8 -9 -8h-44q-11 0 -9 10l20 140h-103q-9 0 -9 10zM235 209h217l39 271h-218z" />
<glyph unicode="$" horiz-adv-x="595" d="M62 50l15 41q3 9 11 6l40 -15q69 -25 138 -29v275l-45 17q-81 30 -115 72.5t-34 106.5q0 77 52 123t142 51v82q0 9 9 9h48q9 0 9 -9v-83q56 -6 108 -23l50 -16q9 -3 6 -12l-14 -41q-3 -8 -11 -5l-48 15q-43 14 -91 19v-263l53 -20q75 -28 113 -68t38 -105 q0 -79 -56 -128.5t-148 -57.5v-86q0 -9 -9 -9h-48q-9 0 -9 9v85q-80 4 -159 33l-40 15q-8 3 -5 11zM139 524q0 -81 108 -121l19 -7v239q-58 -5 -92.5 -34.5t-34.5 -76.5zM332 54q60 9 98 41t38 83q0 73 -108 115l-28 10v-249z" />
<glyph unicode="%" horiz-adv-x="755" d="M60 542q0 69 38.5 108t105.5 39q68 0 106 -38.5t38 -108.5q0 -69 -38.5 -108.5t-105.5 -39.5t-105.5 39.5t-38.5 108.5zM115 542q0 -44 23.5 -69.5t65.5 -25.5t65.5 25.5t23.5 69.5q0 45 -23.5 70t-65.5 25t-65.5 -25t-23.5 -70zM117 11l459 663q4 6 11 6h45q5 0 7 -3 t-2 -8l-459 -663q-4 -6 -11 -6h-45q-5 0 -7 3t2 8zM406 137q0 69 38.5 108t106.5 39q67 0 105 -39t38 -108t-38 -108t-105 -39q-68 0 -106.5 39t-38.5 108zM462 137q0 -44 23.5 -69t65.5 -25q41 0 64.5 25t23.5 69q0 45 -23.5 70t-64.5 25q-42 0 -65.5 -25t-23.5 -70z" />
<glyph unicode="&#x26;" horiz-adv-x="683" d="M51 136q0 43 17.5 77.5t64.5 76.5l76 72q-72 79 -72 163q0 78 54.5 126t142.5 48q58 0 130 -23l39 -13q9 -3 6 -12l-14 -40q-3 -8 -11 -5l-39 12q-58 19 -111 19q-60 0 -96.5 -30.5t-36.5 -81.5q0 -35 13 -63t48 -66l179 -190l13 11q30 29 41.5 42t20.5 32.5t9 42.5v30 h-64q-9 0 -9 9v41q0 9 9 9h118q9 0 9 -9v-80q0 -49 -20 -81.5t-75 -83.5l-9 -8l141 -150q9 -11 -5 -11h-60q-7 0 -12 5l-109 115l-67 -60q-42 -39 -79.5 -54.5t-86.5 -15.5q-72 0 -113.5 39t-41.5 107zM116 136q0 -39 23.5 -61.5t66.5 -22.5q39 0 67 12t61 44l62 57 l-146 153l-82 -76q-31 -30 -41.5 -53.5t-10.5 -52.5z" />
<glyph unicode="'" horiz-adv-x="182" d="M57 654v44q0 9 9 9h50q9 0 9 -9v-44q0 -15 -4.5 -52t-5.5 -49q-1 -9 -10 -9h-27q-8 0 -10 8q-1 8 -6 47t-5 55z" />
<glyph unicode="(" horiz-adv-x="336" d="M105 322q0 218 89 414q3 7 10 7h45q10 0 7 -10q-89 -213 -89 -411t89 -411q3 -10 -7 -10h-45q-7 0 -10 7q-89 198 -89 414z" />
<glyph unicode=")" horiz-adv-x="336" d="M80 -89q89 213 89 411t-89 411q-3 10 7 10h45q7 0 10 -7q89 -196 89 -414q0 -216 -89 -414q-3 -7 -10 -7h-45q-10 0 -7 10z" />
<glyph unicode="*" horiz-adv-x="392" d="M46 548v32q0 9 9 9h55q3 0 42 -3q8 -2 9 0q0 2 -1 4q-17 19 -24 30l-42 76q-7 11 6 11h37q7 0 11 -6l30 -54q10 -18 14 -38q2 -4 4.5 -4t3.5 5q5 22 13 35l31 56q4 6 11 6h37q12 0 6 -11l-43 -76q-8 -15 -23 -30q-2 -3 -1 -4.5t4 -0.5q28 4 40 4h62q9 0 9 -9v-32 q0 -9 -9 -9h-62q-6 0 -41 5q-3 1 -4 -1t1 -5q21 -24 25 -31l42 -75q6 -11 -6 -11h-37q-7 0 -11 6l-30 54q-7 11 -13 32q-5 10 -6 10q-2 1 -3 -5q-9 -28 -14 -37l-30 -54q-4 -6 -11 -6h-37q-12 0 -6 11l41 72q5 10 25 35q2 3 0.5 5t-3.5 1q-30 -6 -47 -6h-55q-9 0 -9 9z" />
<glyph unicode="+" horiz-adv-x="634" d="M81 241v42q0 9 9 9h196v214q0 9 9 9h44q9 0 9 -9v-214h196q9 0 9 -9v-42q0 -9 -9 -9h-196v-214q0 -9 -9 -9h-44q-9 0 -9 9v214h-196q-9 0 -9 9z" />
<glyph unicode="," horiz-adv-x="220" d="M54 -117l43 87q10 19 -7 24q-13 4 -21.5 16.5t-8.5 29.5q0 24 14 37.5t37 13.5q22 0 35.5 -15.5t13.5 -40.5q0 -38 -22 -81l-35 -71h-49z" />
<glyph unicode="-" horiz-adv-x="440" d="M81 242v41q0 9 9 9h260q9 0 9 -9v-41q0 -9 -9 -9h-260q-9 0 -9 9z" />
<glyph unicode="." horiz-adv-x="227" d="M65 40q0 50 48 50q23 0 36 -13.5t13 -36.5t-13 -36.5t-36 -13.5q-48 0 -48 50z" />
<glyph unicode="/" horiz-adv-x="471" d="M38 -89l340 825q3 7 11 7h47q10 0 7 -10l-340 -825q-3 -7 -11 -7h-47q-10 0 -7 10z" />
<glyph unicode="0" horiz-adv-x="629" d="M60 344q0 165 68 260t187 95q118 0 186 -95t68 -260t-68 -259.5t-186 -94.5q-119 0 -187 94.5t-68 259.5zM126 344q0 -139 50 -216.5t139 -77.5q88 0 138 78t50 216t-50 216t-138 78q-89 0 -139 -78t-50 -216z" />
<glyph unicode="1" horiz-adv-x="319" d="M47 608q-3 7 5 12l156 76q8 3 15.5 -2.5t7.5 -13.5v-671q0 -9 -9 -9h-47q-9 0 -9 9v533q0 7 3 55q0 10 -6 10q-2 0 -8 -3l-79 -41q-8 -3 -12 5z" />
<glyph unicode="2" horiz-adv-x="570" d="M70 9v35q0 162 121 246l169 119q77 55 77 114q0 52 -41 83.5t-109 31.5q-75 0 -133 -21l-50 -16q-9 -3 -12 5l-13 40q-3 9 6 12l50 16q85 25 152 25q99 0 157.5 -47.5t58.5 -128.5q0 -88 -110 -164l-168 -120q-89 -62 -89 -180h350q9 0 9 -9v-41q0 -9 -9 -9h-407 q-9 0 -9 9z" />
<glyph unicode="3" horiz-adv-x="562" d="M59 42l15 40q3 8 11 5l50 -15q76 -22 135 -22q74 0 119.5 38t45.5 102q0 67 -44 104.5t-123 37.5h-38q-9 0 -9 9v42q0 9 9 9h38q69 0 108 33t39 89q0 57 -39 90.5t-104 33.5q-62 0 -124 -19l-45 -13q-8 -3 -11 5l-13 40q-3 9 6 12l44 13q76 23 143 23q96 0 152 -48.5 t56 -132.5q0 -108 -94 -147q-16 -7 0 -13q56 -19 85.5 -64t29.5 -109q0 -90 -62.5 -142.5t-168.5 -52.5q-70 0 -153 25l-52 15q-9 3 -6 12z" />
<glyph unicode="4" horiz-adv-x="602" d="M48 204v47q0 6 4 11t65 78l228 279q27 32 44 63q5 6 11 6h64q9 0 9 -9v-424h62q9 0 9 -9v-42q0 -9 -9 -9h-62v-186q0 -9 -9 -9h-47q-9 0 -9 9v186h-351q-9 0 -9 9zM130 267q-10 -12 4 -12h274v259q0 38 5 75q1 8 -3.5 9.5t-9.5 -5.5l-222 -270q-42 -51 -48 -56z" />
<glyph unicode="5" horiz-adv-x="589" d="M67 43l15 40q3 8 11 5l50 -16q70 -22 134 -22q85 0 133.5 43.5t48.5 119.5q1 73 -42.5 114t-124.5 41q-50 0 -102 -8l-65 -9q-6 -1 -12 3l-9 9q-5 4 -5 11v305q0 9 9 9h364q11 0 8 -10l-12 -41q-1 -8 -10 -8h-294v-152q0 -35 -2 -51q-3 -13 12 -10l28 4q54 9 97 9 q107 0 166.5 -57t59.5 -159q0 -105 -65.5 -164t-182.5 -59q-65 0 -153 25l-51 16q-9 3 -6 12z" />
<glyph unicode="6" horiz-adv-x="601" d="M60 218q0 78 25 138.5t82 137.5l139 188q4 6 11 6h58q13 0 6 -11l-160 -214q-24 -34 -47 -61q-5 -8 -1.5 -11.5t12.5 1.5q56 36 131 36q105 0 167 -58t62 -161q0 -104 -64 -161.5t-179 -57.5q-117 0 -179.5 59t-62.5 169zM126 209q0 -75 46 -117t130 -42t130.5 42 t46.5 117t-46.5 117t-130.5 42t-130 -42t-46 -117z" />
<glyph unicode="7" horiz-adv-x="572" d="M49 638v41q0 9 9 9h452q5 0 9.5 -4.5t6 -10.5t-1.5 -11q-17 -28 -51 -99l-246 -556q-3 -7 -10 -7h-51q-12 0 -7 11l244 549q13 28 32 56q8 13 -10 13h-367q-9 0 -9 9z" />
<glyph unicode="8" horiz-adv-x="612" d="M61 183q0 60 35.5 107t94.5 67q5 1 7 4t0 5.5t-7 4.5q-109 36 -109 148q0 83 60 131.5t164 48.5t163.5 -48.5t59.5 -131.5q0 -112 -109 -148q-5 -2 -7 -4.5t0 -5.5t7 -4q60 -20 95.5 -67t35.5 -107q0 -90 -65.5 -141.5t-179.5 -51.5t-179.5 51.5t-65.5 141.5zM128 187 q0 -64 47.5 -100.5t130.5 -36.5t131 36.5t48 100.5q0 66 -51 105.5t-128 39.5t-127.5 -39.5t-50.5 -105.5zM148 513q0 -56 42 -88t116 -32q72 0 114.5 32t42.5 88q0 58 -42 91.5t-115 33.5q-74 0 -116 -33t-42 -92z" />
<glyph unicode="9" horiz-adv-x="601" d="M55 479q0 104 64 161.5t179 57.5q117 0 179.5 -59t62.5 -169q0 -78 -25 -138.5t-82 -137.5l-139 -188q-4 -6 -11 -6h-58q-13 0 -6 11l160 214q24 34 47 61q5 8 1.5 11.5t-12.5 -1.5q-56 -36 -131 -36q-105 0 -167 58t-62 161zM121 479q0 -75 46.5 -117t130.5 -42t130 42 t46 117t-46 117t-130 42t-130.5 -42t-46.5 -117z" />
<glyph unicode=":" horiz-adv-x="217" d="M65 40q0 50 48 50q23 0 36 -13.5t13 -36.5t-13 -36.5t-36 -13.5q-48 0 -48 50zM65 439q0 50 48 50q23 0 36 -13.5t13 -36.5t-13 -36.5t-36 -13.5q-48 0 -48 50z" />
<glyph unicode=";" horiz-adv-x="227" d="M61 -113l43 87q10 19 -7 24q-13 4 -21.5 16.5t-8.5 29.5q0 24 14 37.5t37 13.5q22 0 35.5 -15.5t13.5 -40.5q0 -38 -22 -81l-35 -71h-49zM72 439q0 50 48 50q23 0 36 -13.5t13 -36.5t-13 -36.5t-36 -13.5q-48 0 -48 50z" />
<glyph unicode="&#x3c;" horiz-adv-x="634" d="M81 236v36q0 7 7 10l454 210q11 5 11 -7v-48q0 -7 -7 -10l-381 -173l381 -174q7 -3 7 -10v-48q0 -12 -11 -7l-454 211q-7 3 -7 10z" />
<glyph unicode="=" horiz-adv-x="605" d="M81 134v41q0 9 9 9h426q9 0 9 -9v-41q0 -9 -9 -9h-426q-9 0 -9 9zM81 350v41q0 9 9 9h426q9 0 9 -9v-41q0 -9 -9 -9h-426q-9 0 -9 9z" />
<glyph unicode="&#x3e;" horiz-adv-x="634" d="M81 22v48q0 7 7 10l381 174l-381 173q-7 3 -7 10v48q0 12 11 7l454 -210q7 -3 7 -10v-36q0 -7 -7 -10l-454 -211q-11 -5 -11 7z" />
<glyph unicode="?" horiz-adv-x="550" d="M53 646q-3 9 6 12l52 16q90 25 154 25q102 0 160.5 -44.5t58.5 -122.5q0 -92 -104 -166l-44 -31q-61 -44 -61 -103v-68q0 -9 -9 -9h-47q-9 0 -9 9v68q0 92 88 153l45 31q75 49 75 116q0 46 -42 74.5t-111 28.5q-60 0 -134 -20l-52 -16q-8 -3 -11 5zM200 40q0 50 48 50 q23 0 36 -13.5t13 -36.5t-13 -36.5t-36 -13.5q-48 0 -48 50z" />
<glyph unicode="@" horiz-adv-x="866" d="M71 249q0 159 98.5 256.5t258.5 97.5q165 0 266 -93t101 -242q0 -63 -31 -97t-83 -34q-48 0 -77 26.5t-60 98.5q-21 49 -47.5 70t-66.5 21q-48 0 -75.5 -27t-27.5 -74q0 -50 30 -78t83 -28q34 0 78 12l12 3q7 1 11 -4q17 -23 30 -33q13 -7 -1 -11l-36 -11 q-47 -15 -94 -15q-82 0 -127.5 44t-45.5 121q0 74 43 116.5t119 42.5q55 0 92 -24.5t66 -82.5q40 -78 55 -93q16 -15 39 -15q24 0 38.5 18t14.5 54q0 122 -85 199t-221 77q-133 0 -214.5 -81t-81.5 -214t80 -214t211 -81q85 0 176 28l65 18q8 2 11 -6l12 -39q3 -9 -6 -12 l-66 -19q-95 -29 -192 -29q-159 0 -255.5 97.5t-96.5 256.5z" />
<glyph unicode="A" horiz-adv-x="696" d="M44 10l206 498q35 87 58 172q1 8 10 8h59q9 0 10 -8q19 -71 59 -172l205 -498q3 -10 -7 -10h-51q-8 0 -11 7l-68 168h-332l-68 -168q-3 -7 -11 -7h-52q-10 0 -7 10zM207 236h282l-92 221q-29 73 -43 133q-1 4 -3.5 6t-5.5 0t-4 -6q-11 -56 -43 -133z" />
<glyph unicode="B" horiz-adv-x="646" d="M88 9v670q0 9 9 9h266q96 0 150.5 -44t54.5 -123q0 -57 -28 -98.5t-77 -59.5q-9 -2 -9 -7t9 -8q59 -15 93.5 -58t34.5 -110q0 -85 -56.5 -132.5t-157.5 -47.5h-280q-9 0 -9 9zM154 60h223q68 0 107 33t39 91q0 139 -200 139h-169v-263zM154 383h165q87 0 134.5 35.5 t47.5 97.5q0 52 -37 82t-101 30h-209v-245z" />
<glyph unicode="C" horiz-adv-x="603" d="M56 344q0 165 78 260t214 95q74 0 142 -25l42 -15q8 -3 5 -11l-14 -41q-3 -9 -12 -6l-42 16q-52 19 -121 19q-106 0 -165 -77t-59 -215t59 -215t165 -77q62 0 123 22l41 14q8 3 11 -5l15 -41q3 -8 -5 -11l-41 -15q-73 -26 -144 -26q-136 0 -214 95t-78 259z" />
<glyph unicode="D" horiz-adv-x="664" d="M88 9v670q0 9 9 9h221q135 0 212 -92t77 -252q0 -159 -77.5 -251.5t-211.5 -92.5h-221q-9 0 -9 9zM154 60h164q105 0 163.5 75t58.5 209t-58.5 209t-163.5 75h-164v-568z" />
<glyph unicode="E" horiz-adv-x="600" d="M88 9v670q0 9 9 9h437q11 0 8 -10l-13 -42q-1 -8 -10 -8h-365v-245h311q9 0 9 -9v-42q0 -9 -9 -9h-311v-263h384q9 0 9 -9v-42q0 -9 -9 -9h-441q-9 0 -9 9z" />
<glyph unicode="F" horiz-adv-x="587" d="M88 9v670q0 9 9 9h430q11 0 8 -10l-12 -42q-1 -8 -10 -8h-359v-267h314q9 0 9 -9v-42q0 -9 -9 -9h-314v-292q0 -9 -9 -9h-48q-9 0 -9 9z" />
<glyph unicode="G" horiz-adv-x="652" d="M56 344q0 164 77.5 259.5t213.5 95.5q70 0 144 -26l42 -15q8 -3 5 -11l-15 -42q-3 -8 -11 -5l-42 15q-60 21 -123 21q-106 0 -164.5 -77t-58.5 -215t58.5 -215t164.5 -77q69 1 121 20l45 16v192h-136q-11 0 -8 10l12 42q1 8 10 8h178q9 0 9 -9v-277q0 -9 -7 -10 q-12 -4 -25.5 -9t-30 -11t-25.5 -9q-71 -25 -143 -25q-136 0 -213.5 94.5t-77.5 259.5z" />
<glyph unicode="H" horiz-adv-x="690" d="M88 9v670q0 9 9 9h48q9 0 9 -9v-296h381v296q0 9 9 9h49q9 0 9 -9v-670q0 -9 -9 -9h-49q-9 0 -9 9v314h-381v-314q0 -9 -9 -9h-48q-9 0 -9 9z" />
<glyph unicode="I" horiz-adv-x="242" d="M88 9v670q0 9 9 9h48q9 0 9 -9v-670q0 -9 -9 -9h-48q-9 0 -9 9z" />
<glyph unicode="J" horiz-adv-x="425" d="M48 23l14 41q3 8 11 5l26 -8q27 -9 63 -9q50 0 78 34t28 98v495q0 9 9 9h49q9 0 9 -9v-495q0 -90 -46.5 -142t-126.5 -52q-45 0 -81 12l-27 9q-9 3 -6 12z" />
<glyph unicode="K" horiz-adv-x="633" d="M88 9v670q0 9 9 9h48q9 0 9 -9v-296h23q111 0 213 145l113 154q5 6 11 6h55q5 0 7 -3t-2 -8l-128 -181q-33 -46 -76 -83t-79 -52q-13 -6 0 -12q83 -33 163 -145l134 -193q4 -5 2 -8t-7 -3h-57q-6 0 -11 6l-116 165q-104 152 -220 152h-25v-314q0 -9 -9 -9h-48q-9 0 -9 9z " />
<glyph unicode="L" horiz-adv-x="562" d="M88 9v670q0 9 9 9h48q9 0 9 -9v-619h342q9 0 9 -9v-42q0 -9 -9 -9h-399q-9 0 -9 9z" />
<glyph unicode="M" horiz-adv-x="803" d="M88 9v670q0 9 9 9h79q9 0 10 -8q12 -38 31 -79l148 -327q19 -47 29 -82q1 -5 4 -6.5t6 0t4 6.5q15 46 29 81l149 328q20 44 30 79q2 8 10 8h80q9 0 9 -9v-670q0 -9 -9 -9h-49q-9 0 -9 9v436q0 77 7 133q1 9 -4.5 11t-8.5 -8q-13 -34 -33 -80l-136 -296q-20 -47 -38 -99 q-1 -7 -10 -7h-47q-9 0 -10 7q-22 63 -39 99l-134 295q-16 35 -35 81q-2 6 -5 7.5t-5 -1.5t-2 -9q6 -60 6 -133v-436q0 -9 -9 -9h-48q-9 0 -9 9z" />
<glyph unicode="N" horiz-adv-x="703" d="M88 9v670q0 9 9 9h63q7 0 10 -7q28 -55 56 -97l285 -418q20 -29 33 -60q3 -7 8.5 -5t3.5 9q-7 35 -7 95v474q0 9 9 9h48q9 0 9 -9v-670q0 -9 -9 -9h-62q-7 0 -10 7q-17 36 -56 98l-285 418q-22 36 -33 59q-3 7 -8 5t-4 -9q7 -44 7 -95v-474q0 -9 -9 -9h-49q-9 0 -9 9z " />
<glyph unicode="O" horiz-adv-x="691" d="M56 344q0 164 77.5 259.5t212.5 95.5q134 0 211.5 -95.5t77.5 -259.5t-77.5 -259t-211.5 -95q-135 0 -212.5 95t-77.5 259zM124 344q0 -137 58.5 -214.5t163.5 -77.5t163 77t58 215t-58 215t-163 77t-163.5 -77.5t-58.5 -214.5z" />
<glyph unicode="P" horiz-adv-x="620" d="M88 9v670q0 9 9 9h242q108 0 168 -54.5t60 -152.5q0 -106 -72 -161t-212 -55h-129v-256q0 -9 -9 -9h-48q-9 0 -9 9zM154 325h129q216 0 216 156q0 70 -42.5 108.5t-117.5 38.5h-185v-303z" />
<glyph unicode="Q" horiz-adv-x="692" d="M56 344q0 164 77.5 259.5t212.5 95.5q134 0 211.5 -95.5t77.5 -259.5q0 -118 -41.5 -198.5t-104.5 -109.5q-20 -9 0 -14q72 -21 130 -96l42 -55q5 -8 -2 -12l-36 -28q-7 -6 -13 1l-43 56q-77 102 -221 102q-135 0 -212.5 95t-77.5 259zM124 344q0 -137 58.5 -214.5 t163.5 -77.5t163 77t58 215t-58 215t-163 77t-163.5 -77.5t-58.5 -214.5z" />
<glyph unicode="R" horiz-adv-x="657" d="M88 9v670q0 9 9 9h262q100 0 156 -49t56 -137q0 -133 -147 -181q-20 -7 -1 -16q64 -31 103 -123l73 -171q5 -11 -6 -11h-52q-7 0 -10 7l-65 150q-29 71 -76 104t-121 33h-115v-285q0 -9 -9 -9h-48q-9 0 -9 9zM154 354h144q98 0 152 38t54 107q0 61 -38.5 95t-106.5 34 h-205v-274z" />
<glyph unicode="S" horiz-adv-x="595" d="M62 50l15 41q3 9 11 6l40 -15q85 -30 167 -30q74 0 123.5 33.5t49.5 92.5q0 73 -108 115l-139 52q-81 30 -115 72.5t-34 106.5q0 82 58.5 128.5t158.5 46.5q71 0 151 -25l50 -16q9 -3 6 -12l-14 -41q-3 -8 -11 -5l-48 15q-66 21 -134 21t-109 -30.5t-41 -81.5 q0 -81 108 -121l138 -52q75 -28 113 -68t38 -105q0 -88 -67 -138t-174 -50q-96 0 -188 34l-40 15q-8 3 -5 11z" />
<glyph unicode="T" horiz-adv-x="625" d="M43 637v42q0 9 9 9h521q9 0 9 -9v-42q0 -9 -9 -9h-227v-619q0 -9 -9 -9h-49q-9 0 -9 9v619h-227q-9 0 -9 9z" />
<glyph unicode="U" horiz-adv-x="666" d="M78 270v409q0 9 9 9h48q9 0 9 -9v-409q0 -104 49.5 -161t139.5 -57t139.5 57t49.5 161v409q0 9 9 9h48q9 0 9 -9v-409q0 -132 -67 -206t-188 -74t-188 74t-67 206z" />
<glyph unicode="V" horiz-adv-x="678" d="M39 678q-3 10 7 10h52q8 0 11 -7l187 -451q25 -65 37 -125q0 -4 3 -6t6 0t3 6q12 60 37 125l187 451q3 7 11 7h52q10 0 7 -10l-206 -494q-32 -80 -56 -176q-2 -8 -10 -8h-57q-8 0 -10 8q-26 103 -55 176z" />
<glyph unicode="W" horiz-adv-x="971" d="M48 678q-3 10 8 10h49q9 0 10 -8l135 -449q15 -52 24 -118q0 -4 3 -6t5.5 0t2.5 6q5 48 26 118l146 450q1 7 10 7h37q9 0 10 -7l146 -450q21 -67 27 -118q0 -4 2.5 -6t5.5 0t3 6q6 60 24 118l134 449q1 8 10 8h49q11 0 8 -10l-153 -518q-26 -93 -38 -152q-2 -8 -9 -8h-59 q-7 0 -10 8q-16 80 -36 144l-112 345q-12 46 -14 61q-1 5 -3.5 7t-5 0t-3.5 -7q-2 -15 -14 -61l-112 -345q-20 -64 -36 -144q-3 -8 -10 -8h-59q-8 0 -10 8q-15 74 -37 152z" />
<glyph unicode="X" horiz-adv-x="661" d="M63 11l187 289q17 31 37 42q9 7 0 12q-19 11 -36 42l-182 281q-7 11 6 11h54q7 0 11 -6l182 -281q9 -15 17 0l181 281q4 6 11 6h55q13 0 6 -11l-181 -281q-21 -32 -37 -42q-10 -6 0 -12q20 -11 37 -42l186 -289q7 -11 -6 -11h-55q-6 0 -11 6l-186 291q-8 12 -17 0 l-187 -291q-5 -6 -11 -6h-55q-13 0 -6 11z" />
<glyph unicode="Y" horiz-adv-x="653" d="M42 677q-7 11 6 11h55q7 0 11 -6l147 -227q34 -55 57 -109q2 -7 5 -10q7 -5 10 5q23 56 58 114l148 227q5 6 11 6h55q13 0 6 -11l-171 -265q-46 -76 -63.5 -119.5t-17.5 -107.5v-176q0 -9 -9 -9h-48q-9 0 -9 9v176q0 64 -17 108t-63 119z" />
<glyph unicode="Z" horiz-adv-x="606" d="M62 27q30 41 68 105l273 426q31 48 41 58q12 15 -5 15q-39 -3 -68 -3h-285q-9 0 -9 9v42q0 9 9 9h445q7 0 13 -10t0 -16q-33 -42 -65 -98l-277 -433q-20 -30 -41 -58q-6 -7 -4 -11.5t10 -3.5q50 2 69 2h296q11 0 8 -10l-12 -42q-1 -8 -10 -8h-443q-7 0 -12.5 10t-0.5 17z " />
<glyph unicode="[" horiz-adv-x="330" d="M108 -90v824q0 9 9 9h131q9 0 9 -9v-42q0 -9 -9 -9h-79v-722h79q9 0 9 -9v-42q0 -9 -9 -9h-131q-9 0 -9 9z" />
<glyph unicode="\" horiz-adv-x="471" d="M28 733q-3 10 7 10h47q8 0 11 -7l340 -825q3 -10 -7 -10h-47q-8 0 -11 7z" />
<glyph unicode="]" horiz-adv-x="330" d="M73 -48q0 9 9 9h79v722h-79q-9 0 -9 9v42q0 9 9 9h131q9 0 9 -9v-824q0 -9 -9 -9h-131q-9 0 -9 9v42z" />
<glyph unicode="^" horiz-adv-x="483" d="M65 356l145 318q3 7 10 7h43q7 0 10 -7l145 -318q5 -11 -7 -11h-50q-7 0 -10 7l-110 251l-109 -251q-3 -7 -10 -7h-50q-12 0 -7 11z" />
<glyph unicode="_" horiz-adv-x="487" d="M-12 -161q0 9 9 9h492q9 0 9 -9v-41q0 -9 -9 -9h-492q-9 0 -9 9v41z" />
<glyph unicode="`" horiz-adv-x="259" d="M57 696q-9 11 5 11h55q7 0 11 -6l76 -113q7 -11 -6 -11h-41q-6 0 -11 5z" />
<glyph unicode="a" horiz-adv-x="506" d="M45 134q0 67 45.5 106.5t130.5 40.5h151v13q0 64 -35 99t-99 35q-54 0 -91 -12l-35 -10q-9 -3 -12 6l-11 39q-3 9 6 12l37 11q48 15 107 15q92 0 145 -52t53 -142v-286q0 -9 -9 -9h-31q-9 0 -10 9l-3 45q-4 18 -20 1q-51 -65 -159 -65q-75 0 -117.5 38.5t-42.5 105.5z M110 138q0 -42 26 -65.5t74 -23.5q77 0 119.5 42.5t42.5 120.5v13h-151q-55 0 -83 -23.5t-28 -63.5z" />
<glyph unicode="b" horiz-adv-x="553" d="M78 57v641q0 9 9 9h47q9 0 9 -9v-184q0 -60 -8 -101q-2 -8 2.5 -10t9.5 5q53 81 152 81q96 0 150 -66.5t54 -182.5t-58 -183t-160 -67q-69 0 -128 26l-72 31q-7 3 -7 10zM142 92l41 -21q48 -21 102 -21q72 0 112.5 50.5t40.5 139.5t-38.5 139t-106.5 50q-73 0 -112 -55.5 t-39 -144.5v-137z" />
<glyph unicode="c" horiz-adv-x="467" d="M50 240q0 116 59 182.5t168 66.5q43 0 93 -15l31 -9q9 -2 6 -11l-13 -40q-3 -8 -11 -6l-28 8q-38 13 -77 13q-81 0 -122 -49.5t-41 -139.5t41 -140t120 -50q38 0 85 14l28 8q9 3 12 -6l12 -39q3 -9 -6 -12l-32 -9q-51 -16 -99 -16q-108 0 -167 66.5t-59 183.5z" />
<glyph unicode="d" horiz-adv-x="553" d="M50 240q0 116 57.5 182t158.5 67q63 0 114 -24l31 -14v247q0 9 9 9h46q9 0 9 -9v-689q0 -9 -9 -9h-31q-9 0 -10 9l-4 60q-1 7 -5 7.5t-9 -6.5q-58 -80 -153 -80t-149.5 67t-54.5 183zM115 240q1 -89 39.5 -139.5t106.5 -50.5q72 0 111 55.5t39 144.5v138l-41 19 q-44 22 -102 22q-72 -1 -113 -51t-40 -138z" />
<glyph unicode="e" horiz-adv-x="500" d="M50 240q0 115 58.5 182t160.5 67q85 0 133 -39t48 -109q0 -104 -134 -126l-195 -32q10 -63 49 -98t100 -35q53 0 93 13l30 9q9 2 12 -7l12 -40q2 -10 -7 -11l-32 -9q-48 -15 -108 -15q-103 0 -161.5 67t-58.5 183zM116 238l189 32q80 14 80 70q0 42 -31 65.5t-86 23.5 q-71 0 -110.5 -48t-41.5 -143z" />
<glyph unicode="f" horiz-adv-x="337" d="M53 429v41q0 9 9 9h46v87q0 71 37 111t101 40q27 0 53 -11l16 -6q8 -3 5 -11l-15 -40q-3 -8 -11 -5l-13 5q-17 7 -35 7q-34 0 -53.5 -24t-19.5 -66v-87h111q9 0 9 -9v-41q0 -9 -9 -9h-111v-411q0 -9 -9 -9h-47q-9 0 -9 9v411h-46q-9 0 -9 9z" />
<glyph unicode="g" horiz-adv-x="549" d="M50 239q0 117 58.5 183.5t163.5 66.5q65 0 125 -26l72 -32q7 -3 7 -10v-436q0 -98 -56.5 -152t-163.5 -54q-63 0 -114 15l-44 12q-9 3 -6 12l13 40q3 8 11 5l39 -11q40 -12 99 -12q153 0 163 137q1 43 4 92q0 4 -1.5 6t-4.5 1t-6 -5q-58 -81 -155 -81q-94 0 -149 67 t-55 182zM115 240q0 -86 38 -138t107 -52q73 0 112 55t39 146v137l-41 19q-42 22 -100 22q-74 -1 -114.5 -50t-40.5 -139z" />
<glyph unicode="h" d="M78 9v689q0 9 9 9h47q9 0 9 -9v-184q0 -56 -9 -102q-2 -7 2.5 -8.5t10.5 4.5q55 81 159 81q82 0 129.5 -52t47.5 -142v-286q0 -9 -9 -9h-47q-9 0 -9 9v281q0 65 -31.5 102t-86.5 37q-81 0 -119 -56.5t-38 -144.5v-219q0 -9 -9 -9h-47q-9 0 -9 9z" />
<glyph unicode="i" horiz-adv-x="251" d="M53 429v41q0 9 9 9h102q9 0 9 -9v-461q0 -9 -9 -9h-47q-9 0 -9 9v411h-46q-9 0 -9 9zM86 668q0 21 12 32.5t32 11.5q43 0 43 -44t-43 -44q-20 0 -32 11.5t-12 32.5z" />
<glyph unicode="j" horiz-adv-x="251" d="M33 -180q-3 8 3 12l29 22q43 30 43 88v478h-46q-9 0 -9 9v41q0 9 9 9h102q9 0 9 -9v-528q0 -88 -74 -139l-30 -22q-8 -6 -13 2zM87 668q0 44 43 44t43 -44t-43 -44t-43 44z" />
<glyph unicode="k" horiz-adv-x="502" d="M78 9v689q0 9 9 9h47q9 0 9 -9v-426h19q26 0 53 17.5t39.5 31.5t39.5 47l83 106q5 5 11 5h55q13 0 6 -11l-98 -128q-57 -75 -99 -91q-10 -5 0 -9q47 -18 105 -94l100 -135q7 -11 -6 -11h-55q-6 0 -11 5l-87 115q-24 31 -37.5 46.5t-40 30.5t-56.5 15h-21v-203q0 -9 -9 -9 h-47q-9 0 -9 9z" />
<glyph unicode="l" horiz-adv-x="254" d="M78 86v612q0 9 9 9h47q9 0 9 -9v-612q0 -36 26 -36q2 0 7.5 1t8 0t4.5 -5l17 -39q1 -4 0.5 -6.5t-4.5 -4.5t-7.5 -3t-9 -2t-9 -1h-7.5q-43 0 -67 25t-24 71z" />
<glyph unicode="m" horiz-adv-x="855" d="M78 9v461q0 9 9 9h31q8 0 10 -9l3 -59q5 -15 16 -2q57 80 151 80q97 0 137 -90q10 -15 22 -1q59 91 161 91q77 0 120.5 -52t43.5 -142v-286q0 -9 -9 -9h-47q-9 0 -9 9v281q0 66 -27 102.5t-78 36.5q-76 0 -112.5 -54t-36.5 -147v-219q0 -9 -9 -9h-47q-9 0 -9 9v282 q0 65 -28 101.5t-78 36.5q-76 0 -112.5 -54t-36.5 -147v-219q0 -9 -9 -9h-47q-9 0 -9 9z" />
<glyph unicode="n" d="M78 9v461q0 9 9 9h31q9 0 9 -9l4 -61q5 -15 15 -1q57 81 160 81q82 0 129.5 -52t47.5 -142v-286q0 -9 -9 -9h-47q-9 0 -9 9v281q0 65 -31.5 102t-86.5 37q-74 0 -115.5 -53t-41.5 -148v-219q0 -9 -9 -9h-47q-9 0 -9 9z" />
<glyph unicode="o" horiz-adv-x="537" d="M50 240q0 115 58.5 182t159.5 67t159.5 -67t58.5 -182q0 -116 -58.5 -183t-159.5 -67t-159.5 67t-58.5 183zM115 240q0 -89 40.5 -139.5t112.5 -50.5t113 50.5t41 139.5q0 88 -41 138.5t-113 50.5t-112.5 -50t-40.5 -139z" />
<glyph unicode="p" horiz-adv-x="553" d="M78 -202v672q0 9 9 9h31q8 0 10 -9l4 -60q1 -4 3 -6t5 -0.5t6 5.5q57 80 153 80t150 -66.5t54 -182.5q0 -117 -57 -183.5t-159 -66.5q-63 0 -114 24l-30 14v-230q0 -9 -9 -9h-47q-9 0 -9 9zM142 91l41 -20q45 -21 102 -21q72 0 112.5 50.5t40.5 139.5q0 88 -38.5 138.5 t-107.5 50.5q-72 0 -111 -55.5t-39 -144.5v-138z" />
<glyph unicode="q" horiz-adv-x="548" d="M50 240q0 116 58 182.5t160 66.5q70 0 129 -27l71 -31q7 -3 7 -10v-624q0 -9 -9 -9h-46q-9 0 -9 9v168q0 62 8 101q2 8 -2.5 10t-10.5 -5q-53 -81 -152 -81q-96 0 -150 66.5t-54 183.5zM115 240q0 -90 38 -140t107 -50q73 0 112 55t39 145v138l-40 19q-48 22 -103 22 q-72 0 -112.5 -50.5t-40.5 -138.5z" />
<glyph unicode="r" horiz-adv-x="373" d="M78 9v461q0 9 9 9h31q8 0 10 -9l7 -75q2 -6 5.5 -7t7.5 5q58 92 163 96q9 0 9 -9v-42q0 -9 -9 -9q-81 -4 -124.5 -71t-43.5 -193v-156q0 -9 -9 -9h-47q-9 0 -9 9z" />
<glyph unicode="s" horiz-adv-x="469" d="M54 34l14 40q3 8 11 5l26 -9q57 -20 133 -20q55 0 86 21t31 58q0 53 -67 73l-117 33q-108 28 -108 124q0 61 45 95.5t126 34.5q67 0 117 -15l39 -12q9 -3 6 -12l-11 -39q-3 -9 -12 -6l-38 11q-44 13 -100 13q-50 0 -78.5 -19t-28.5 -51q0 -52 64 -70l116 -33 q112 -29 112 -127q0 -65 -48 -102t-134 -37q-88 0 -151 23l-27 9q-9 3 -6 12z" />
<glyph unicode="t" horiz-adv-x="341" d="M53 429v41q0 9 9 9h46v120q0 9 7 10l48 16q10 3 10 -8v-138h111q9 0 9 -9v-41q0 -9 -9 -9h-111v-303q0 -21 6 -36t18 -23t29 -8q11 0 26 5q7 3 12 -5l17 -37q3 -7 -3 -11.5t-16.5 -7t-19.5 -3.5t-16 -1q-56 0 -87 33t-31 93v304h-46q-9 0 -9 9z" />
<glyph unicode="u" d="M73 184v286q0 9 9 9h47q9 0 9 -9v-281q0 -65 31.5 -102t86.5 -37q74 0 115.5 53t41.5 148v219q0 9 9 9h47q9 0 9 -9v-461q0 -9 -9 -9h-31q-9 0 -9 9l-4 61q-5 15 -15 1q-57 -81 -160 -81q-82 0 -129.5 52t-47.5 142z" />
<glyph unicode="v" horiz-adv-x="534" d="M40 468q-5 11 7 11h50q7 0 10 -7l113 -251q27 -64 40 -120q2 -7 7 -7t7 7q10 51 40 120l113 251q3 7 10 7h50q12 0 7 -11l-130 -289q-37 -88 -60 -171q-1 -8 -10 -8h-54q-9 0 -10 8q-22 83 -60 171z" />
<glyph unicode="w" horiz-adv-x="764" d="M44 469q-3 10 8 10h48q9 0 10 -7l80 -254q22 -76 30 -118q1 -4 3.5 -6t5.5 0t4 6q10 42 37 125l87 247q3 7 11 7h28q8 0 11 -7l87 -247q29 -92 37 -125q1 -4 4 -6t5.5 0t3.5 6q8 41 29 118l81 254q1 7 10 7h47q11 0 8 -10l-96 -305q-31 -99 -45 -156q-2 -8 -10 -8h-56 q-8 0 -10 8q-9 33 -39 124l-60 169q-11 33 -14 55q-1 6 -4 8t-6 -0.5t-4 -7.5q-6 -33 -14 -55l-60 -169q-26 -73 -39 -124q-2 -8 -10 -8h-56q-8 0 -10 8q-10 40 -44 156z" />
<glyph unicode="x" horiz-adv-x="518" d="M53 11l136 198q13 20 23 27q7 5 7 6q0 2 -3 4q-12 9 -27 30l-132 192q-4 4 -2 7.5t7 3.5h54q6 0 11 -6l125 -181q6 -11 16 4l123 177q4 6 11 6h53q5 0 7 -3.5t-2 -7.5l-132 -192q-17 -24 -27 -30q-3 -2 -3 -3q-1 -3 5 -6q1 0 1.5 -0.5t1.5 -0.5q11 -10 22 -27l136 -198 q4 -5 2 -8t-7 -3h-54q-7 0 -11 6l-129 186q-6 9 -13 0l-129 -186q-5 -6 -11 -6h-54q-5 0 -7 3t2 8z" />
<glyph unicode="y" horiz-adv-x="540" d="M40 468q-5 11 7 11h50q7 0 10 -7l119 -263q26 -62 37 -110q1 -4 3.5 -6t5.5 0t4 6q11 42 40 110l117 263q3 7 10 7h51q11 0 6 -11l-294 -672q-3 -7 -10 -7h-49q-12 0 -7 11l69 155q28 66 -14 166z" />
<glyph unicode="z" horiz-adv-x="468" d="M54 22q26 33 45 65l190 285q18 27 29 39q4 5 3 8t-7 2q-18 -1 -48 -1h-195q-9 0 -9 9v41q0 9 9 9h334q8 0 12.5 -7.5t-0.5 -14.5q-23 -27 -42 -59l-193 -292q-11 -15 -29 -38q-4 -5 -2.5 -8t7.5 -2q17 1 47 1h199q11 0 8 -10l-12 -41q-1 -8 -10 -8h-324q-8 0 -12.5 7.5 t0.5 14.5z" />
<glyph unicode="{" horiz-adv-x="347" d="M63 301v43q0 9 9 9h5q23 0 37 15t14 42v207q0 61 36.5 96.5t102.5 37.5q9 0 9 -9v-42q0 -9 -9 -9q-37 -2 -57 -22t-20 -52v-207q0 -59 -36 -80q-14 -8 0 -15q36 -21 36 -81v-205q0 -33 20 -53t57 -22q9 0 9 -9v-41q0 -9 -9 -9q-66 2 -102.5 37.5t-36.5 96.5v205 q0 27 -14 42.5t-37 15.5h-5q-9 0 -9 9z" />
<glyph unicode="|" horiz-adv-x="277" d="M107 -203v938q0 9 9 9h45q9 0 9 -9v-938q0 -9 -9 -9h-45q-9 0 -9 9z" />
<glyph unicode="}" horiz-adv-x="347" d="M71 -55q0 9 9 9q37 2 57 22t20 53v205q0 60 36 81q14 7 0 15q-36 21 -36 80v207q0 32 -20 52t-57 22q-9 0 -9 9v42q0 9 9 9q66 -2 102.5 -37.5t36.5 -96.5v-207q0 -27 14 -42t37 -15h5q9 0 9 -9v-43q0 -9 -9 -9h-5q-23 0 -37 -15.5t-14 -42.5v-205q0 -61 -36.5 -96.5 t-102.5 -37.5q-9 0 -9 9v41z" />
<glyph unicode="~" horiz-adv-x="521" d="M58 289l35 58q36 57 96 57q35 0 68 -25l39 -30q19 -13 37 -13q30 0 46 27l19 33q4 6 11 6h47q12 0 7 -11l-35 -59q-33 -56 -94 -56q-36 0 -68 24l-41 31q-16 12 -36 12q-32 0 -46 -26l-20 -33q-5 -6 -11 -6h-47q-13 0 -7 11z" />
<glyph unicode="&#xa1;" horiz-adv-x="237" d="M65 437q0 23 13 36.5t36 13.5q48 0 48 -50t-48 -50q-23 0 -36 13.5t-13 36.5zM85 93q0 39 4 116t5 102q0 9 9 9h31q9 0 9 -9q1 -25 5 -102t4 -116v-296q0 -9 -9 -9h-49q-9 0 -9 9v296z" />
<glyph unicode="&#xa2;" horiz-adv-x="467" d="M50 450q0 104 47 168.5t136 77.5v84q0 9 9 9h47q9 0 9 -9v-82q39 -3 72 -14l31 -9q9 -2 6 -11l-13 -40q-3 -8 -11 -6l-28 8q-31 10 -57 12v-377q24 2 63 13l28 8q9 3 12 -6l12 -39q3 -9 -6 -12l-32 -9q-37 -12 -77 -15v-83q0 -9 -9 -9h-47q-9 0 -9 9v85 q-88 13 -135.5 77.5t-47.5 169.5zM115 450q0 -159 118 -186v370q-58 -13 -88 -60.5t-30 -123.5z" />
<glyph unicode="&#xa3;" horiz-adv-x="570" d="M34 308v42q0 9 9 9h87v139q0 93 54 147t148 54q45 0 97 -16l30 -10q9 -3 6 -12l-15 -40q-3 -8 -11 -5l-30 9q-42 11 -77 11q-63 0 -99.5 -36.5t-36.5 -101.5v-139h172q9 0 9 -9v-42q0 -9 -9 -9h-172v-82q0 -82 -42 -146q-4 -8 -1.5 -12.5t10.5 -2.5q27 4 70 4h280 q9 0 9 -9v-42q0 -9 -9 -9h-432q-7 0 -10 6l-5 9q-3 6 1 12l20 34q43 63 43 151v87h-87q-9 0 -9 9z" />
<glyph unicode="&#xa4;" horiz-adv-x="597" d="M87 141q-6 6 0 12l74 75q-29 42 -29 94t29 95l-74 74q-6 6 0 12l31 31q6 6 12 0l75 -76q41 31 94 31q49 0 94 -30l74 74q6 6 12 0l31 -31q6 -6 0 -12l-75 -74q31 -42 31 -94t-31 -94l75 -75q6 -6 0 -12l-31 -31q-6 -6 -12 0l-74 75q-41 -29 -94 -29q-55 0 -94 30l-75 -76 q-6 -6 -12 0zM190 322q0 -46 31.5 -77.5t77.5 -31.5t77.5 31.5t31.5 77.5t-31.5 78t-77.5 32t-77.5 -32t-31.5 -78z" />
<glyph unicode="&#xa5;" horiz-adv-x="663" d="M47 677q-7 11 6 11h55q6 0 11 -6l147 -227q34 -55 57 -109q2 -7 5 -10q7 -5 10 5q23 56 58 114l148 227q4 6 11 6h55q13 0 6 -11l-171 -265q-36 -60 -45 -78h123q9 0 9 -9v-35q0 -9 -9 -9h-146q-11 -40 -12 -70h158q9 0 9 -9v-35q0 -9 -9 -9h-159v-149q0 -9 -9 -9h-48 q-9 0 -9 9v149h-158q-9 0 -9 9v35q0 9 9 9h157q-1 37 -12 70h-145q-9 0 -9 9v35q0 9 9 9h123q-9 18 -45 78z" />
<glyph unicode="&#xa6;" horiz-adv-x="278" d="M107 153q0 9 9 9h46q9 0 9 -9v-356q0 -9 -9 -9h-46q-9 0 -9 9v356zM107 381v354q0 9 9 9h46q9 0 9 -9v-354q0 -9 -9 -9h-46q-9 0 -9 9z" />
<glyph unicode="&#xa7;" horiz-adv-x="594" d="M59 -161l15 39q3 8 11 5l40 -14q83 -30 164 -30t127 26.5t46 74.5q0 65 -96 101l-159 60q-140 54 -138 172q1 83 82 133q11 8 1 14q-22 16 -36 29t-26.5 38.5t-12.5 56.5q0 73 57 114t158 41q76 0 150 -25l50 -16q9 -3 6 -12l-14 -40q-3 -8 -11 -5l-48 15q-65 22 -131 22 q-71 0 -111 -25t-40 -69q0 -66 98 -103l154 -59q141 -54 141 -175q0 -90 -80 -131q-12 -7 -2 -13q36 -25 55 -51.5t19 -71.5q0 -77 -63 -119.5t-175 -42.5q-88 0 -186 35l-39 14q-9 3 -6 12zM133 273q0 -79 109 -120l100 -38q49 -18 89.5 11t40.5 79q0 43 -29.5 75t-75.5 49 l-105 39q-46 17 -87.5 -11.5t-41.5 -83.5z" />
<glyph unicode="&#xa8;" horiz-adv-x="321" d="M44 669q0 20 11 31.5t31 11.5q19 0 30.5 -11.5t11.5 -31.5t-11.5 -31.5t-30.5 -11.5q-20 0 -31 11.5t-11 31.5zM196 669q0 20 11 31.5t31 11.5q19 0 30.5 -11.5t11.5 -31.5t-11.5 -31.5t-30.5 -11.5q-20 0 -31 11.5t-11 31.5z" />
<glyph unicode="&#xa9;" horiz-adv-x="789" d="M49 344q0 159 95 257t250 98t250.5 -98t95.5 -257t-95.5 -256.5t-250.5 -97.5t-250 97.5t-95 256.5zM95 344q0 -138 82.5 -222.5t216.5 -84.5q135 0 217 84.5t82 222.5q0 139 -82 223.5t-217 84.5q-134 0 -216.5 -84.5t-82.5 -223.5zM226 345q0 90 45.5 142.5t123.5 52.5 q42 0 84 -14l21 -7q8 -3 5 -12l-9 -27q-3 -8 -11 -5l-21 6q-33 12 -69 12q-56 0 -88.5 -39.5t-32.5 -108.5q0 -70 32.5 -109.5t88.5 -39.5q35 0 68 11l21 7q9 3 12 -6l9 -27q3 -9 -6 -12l-21 -6q-38 -13 -83 -13q-79 0 -124 52.5t-45 142.5z" />
<glyph unicode="&#xaa;" horiz-adv-x="398" d="M40 417q0 52 35.5 82.5t100.5 30.5h114v9q0 48 -26.5 74.5t-74.5 26.5q-39 0 -69 -10l-26 -8q-9 -2 -12 7l-9 31q-3 9 6 12l27 8q36 11 84 11q72 0 113.5 -40.5t41.5 -110.5v-221q0 -9 -9 -9h-24q-9 0 -9 9l-2 29q-3 16 -14 3q-41 -49 -123 -49q-58 0 -91 31t-33 84z M45 166v33q0 9 9 9h283q9 0 9 -9v-33q0 -9 -9 -9h-283q-9 0 -9 9zM95 421q0 -32 19 -50t55 -18q121 0 121 120v9h-114q-81 0 -81 -61z" />
<glyph unicode="&#xab;" horiz-adv-x="538" d="M79 236v7q0 6 4 11l127 160q5 5 11 5h54q14 0 5 -11l-132 -168l132 -169q9 -11 -5 -11h-53q-6 0 -11 5l-128 160q-4 5 -4 11zM250 236v7q0 6 4 11l127 160q5 5 11 5h54q14 0 5 -11l-132 -168l132 -169q9 -11 -5 -11h-53q-6 0 -11 5l-128 160q-4 5 -4 11z" />
<glyph unicode="&#xad;" horiz-adv-x="440" d="M81 242v41q0 9 9 9h260q9 0 9 -9v-41q0 -9 -9 -9h-260q-9 0 -9 9z" />
<glyph unicode="&#xae;" horiz-adv-x="789" d="M49 344q0 159 95 257t250 98t250.5 -98t95.5 -257t-95.5 -256.5t-250.5 -97.5t-250 97.5t-95 256.5zM95 344q0 -138 82.5 -222.5t216.5 -84.5q135 0 217 84.5t82 222.5q0 139 -82 223.5t-217 84.5q-134 0 -216.5 -84.5t-82.5 -223.5zM270 174v342q0 9 9 9h139 q55 0 86 -27.5t31 -75.5q0 -69 -73 -93q-1 -1 -5 -2q-10 -3 -1 -8q38 -20 53 -60l37 -83q5 -11 -7 -11h-29q-7 0 -10 7l-31 71q-15 34 -38.5 49t-63.5 15h-50v-133q0 -9 -9 -9h-29q-9 0 -9 9zM317 351h71q101 0 101 68q0 60 -71 60h-101v-128z" />
<glyph unicode="&#xaf;" horiz-adv-x="352" d="M53 625v32q0 9 9 9h228q9 0 9 -9v-32q0 -9 -9 -9h-228q-9 0 -9 9z" />
<glyph unicode="&#xb0;" horiz-adv-x="268" d="M25 593q0 51 28.5 80t80.5 29q51 0 80 -29t29 -80q0 -52 -29 -80.5t-80 -28.5q-52 0 -80.5 28.5t-28.5 80.5zM80 593q0 -28 14 -43t40 -15t40 15t14 43q0 27 -14 42t-40 15t-40 -15t-14 -42z" />
<glyph unicode="&#xb1;" horiz-adv-x="634" d="M81 298v42q0 9 9 9h196v214q0 9 9 9h44q9 0 9 -9v-214h196q9 0 9 -9v-42q0 -9 -9 -9h-196v-214q0 -9 -9 -9h-44q-9 0 -9 9v214h-196q-9 0 -9 9zM95 -21q0 9 9 9h426q9 0 9 -9v-41q0 -9 -9 -9h-426q-9 0 -9 9v41z" />
<glyph unicode="&#xb4;" horiz-adv-x="259" d="M55 588l76 113q4 6 11 6h55q14 0 5 -11l-89 -114q-5 -5 -11 -5h-41q-13 0 -6 11z" />
<glyph unicode="&#xb5;" horiz-adv-x="566" d="M78 -202v464q0 9 9 9q-4 0 -4 9v190q0 9 9 9h47q9 0 9 -9v-281q0 -65 31.5 -102t86.5 -37q74 0 115.5 53t41.5 148v219q0 9 9 9h47q9 0 9 -9v-461q0 -9 -9 -9h-31q-9 0 -9 9l-4 61q-5 15 -15 1q-57 -81 -160 -81q-71 0 -117 40v-232q0 -9 -9 -9h-47q-9 0 -9 9z" />
<glyph unicode="&#xb6;" horiz-adv-x="621" d="M95 500q0 89 50.5 138.5t140.5 49.5h238q9 0 9 -9v-670q0 -9 -9 -9h-35q-9 0 -9 9v628h-88v-628q0 -9 -9 -9h-35q-9 0 -9 9v301q-109 0 -176.5 49t-67.5 141z" />
<glyph unicode="&#xb7;" horiz-adv-x="217" d="M65 249q0 50 48 50q23 0 36 -13.5t13 -36.5t-13 -36.5t-36 -13.5q-48 0 -48 50z" />
<glyph unicode="&#xb8;" horiz-adv-x="277" d="M58 -197l10 31q3 8 11 5l15 -4q15 -5 30 -5q49 0 49 40q0 39 -50 39h-32q-8 0 -12.5 6t-2.5 14l24 70q3 7 11 7h29q10 0 7 -10l-19 -48h7q40 0 63.5 -21.5t23.5 -60.5q0 -41 -26 -64.5t-72 -23.5q-22 0 -45 8l-15 5q-9 3 -6 12z" />
<glyph unicode="&#xba;" horiz-adv-x="416" d="M37 497q0 90 45.5 142.5t124.5 52.5t125.5 -53t46.5 -142q0 -90 -46.5 -142.5t-125.5 -52.5t-124.5 52.5t-45.5 142.5zM57 166v33q0 9 9 9h283q9 0 9 -9v-33q0 -9 -9 -9h-283q-9 0 -9 9zM91 497q0 -67 31 -105.5t85 -38.5q55 0 86 38t31 106t-31 106t-86 38 q-54 0 -85 -38.5t-31 -105.5z" />
<glyph unicode="&#xbb;" horiz-adv-x="538" d="M87 71l132 169l-132 168q-9 11 5 11h54q6 0 11 -5l127 -160q4 -5 4 -11v-7q0 -6 -4 -11l-128 -160q-5 -5 -11 -5h-53q-14 0 -5 11zM258 71l132 169l-132 168q-9 11 5 11h54q6 0 11 -5l127 -160q4 -5 4 -11v-7q0 -6 -4 -11l-128 -160q-5 -5 -11 -5h-53q-14 0 -5 11z" />
<glyph unicode="&#xbc;" horiz-adv-x="746" d="M29 634q-4 7 4 12l101 43q7 3 12 -1t5 -11v-363q0 -9 -9 -9h-35q-9 0 -9 9v262q0 25 2 35q1 5 -1 6t-6 -1l-39 -18q-7 -4 -12 4zM81 11l447 671q4 6 11 6h42q13 0 6 -11l-447 -671q-4 -6 -11 -6h-42q-13 0 -6 11zM420 111v36q0 6 4 11q10 10 34 40l113 144q17 22 24 35 q5 6 11 6h51q9 0 9 -9v-224h32q9 0 9 -9v-30q0 -9 -9 -9h-32v-92q0 -9 -9 -9h-36q-9 0 -9 9v92h-183q-9 0 -9 9zM483 156q-7 -6 3 -6h126v109q0 28 4 49q1 6 -3 7q-3 0 -6 -4l-99 -124q-16 -22 -25 -31z" />
<glyph unicode="&#xbd;" horiz-adv-x="792" d="M29 634q-4 7 4 12l101 43q7 3 12 -1t5 -11v-363q0 -9 -9 -9h-35q-9 0 -9 9v262q0 25 2 35q1 5 -1 6t-6 -1l-39 -18q-7 -4 -12 4zM81 11l447 671q4 6 11 6h42q13 0 6 -11l-447 -671q-4 -6 -11 -6h-42q-13 0 -6 11zM504 10v24q0 94 70 140l89 58q36 25 36 52 q0 23 -19.5 37.5t-50.5 14.5q-35 0 -71 -12l-28 -8q-8 -3 -11 5l-11 31q-3 9 6 12l27 9q45 14 88 14q58 0 91.5 -27.5t33.5 -75.5q0 -54 -63 -95l-90 -59q-42 -27 -42 -79h181q9 0 9 -9v-32q0 -9 -9 -9h-227q-9 0 -9 9z" />
<glyph unicode="&#xbe;" horiz-adv-x="859" d="M34 337l11 31q3 8 11 6l27 -8q37 -13 72 -13q36 0 58 16t22 43q0 30 -22.5 48t-56.5 18h-21q-9 0 -9 9v33q0 9 9 9h20q32 0 50 14.5t18 40.5q0 27 -18.5 42t-49.5 15q-35 0 -64 -10l-25 -7q-8 -3 -11 5l-10 31q-3 9 6 12l24 8q35 12 80 12q57 0 90 -27.5t33 -75.5 q0 -57 -50 -81q-10 -4 0 -7q61 -24 61 -93q0 -51 -35.5 -78.5t-98.5 -27.5q-35 0 -87 14l-28 9q-9 3 -6 12zM194 11l447 671q5 6 11 6h42q13 0 6 -11l-447 -671q-5 -6 -11 -6h-42q-13 0 -6 11zM533 111v36q0 6 4 11q10 10 34 40l113 144q17 22 24 35q4 6 11 6h51q9 0 9 -9 v-224h32q9 0 9 -9v-30q0 -9 -9 -9h-32v-92q0 -9 -9 -9h-36q-9 0 -9 9v92h-183q-9 0 -9 9zM596 156q-8 -6 3 -6h126v109q0 28 4 49q1 6 -3 7q-3 0 -6 -4l-99 -124q-16 -22 -25 -31z" />
<glyph unicode="&#xbf;" horiz-adv-x="502" d="M55 -55q0 92 104 166l44 31q61 44 61 103v68q0 9 9 9h47q9 0 9 -9v-68q0 -92 -88 -153l-45 -31q-75 -49 -75 -116q0 -46 42 -74.5t111 -28.5q60 0 134 20l52 16q8 3 11 -5l15 -42q3 -9 -6 -12l-52 -16q-90 -25 -154 -25q-102 0 -160.5 44.5t-58.5 122.5zM242 437 q0 23 13 36.5t36 13.5q48 0 48 -50t-48 -50q-23 0 -36 13.5t-13 36.5z" />
<glyph unicode="&#xc0;" horiz-adv-x="696" d="M44 10l206 498q35 87 58 172q1 8 10 8h59q9 0 10 -8q19 -71 59 -172l205 -498q3 -10 -7 -10h-51q-8 0 -11 7l-68 168h-332l-68 -168q-3 -7 -11 -7h-52q-10 0 -7 10zM207 236h282l-92 221q-29 73 -43 133q-1 4 -3.5 6t-5.5 0t-4 -6q-11 -56 -43 -133zM224 864 q-3 3 -3.5 5.5t1.5 4t6 1.5h68q7 0 11 -5l78 -91q4 -5 2 -8t-7 -3h-48q-6 0 -11 4z" />
<glyph unicode="&#xc1;" horiz-adv-x="696" d="M44 10l206 498q35 87 58 172q1 8 10 8h59q9 0 10 -8q19 -71 59 -172l205 -498q3 -10 -7 -10h-51q-8 0 -11 7l-68 168h-332l-68 -168q-3 -7 -11 -7h-52q-10 0 -7 10zM207 236h282l-92 221q-29 73 -43 133q-1 4 -3.5 6t-5.5 0t-4 -6q-11 -56 -43 -133zM308 779l78 91 q4 5 11 5h68q4 0 6 -1.5t1.5 -4t-3.5 -5.5l-97 -92q-5 -4 -11 -4h-48q-5 0 -7 3t2 8z" />
<glyph unicode="&#xc2;" horiz-adv-x="696" d="M44 10l206 498q35 87 58 172q1 8 10 8h59q9 0 10 -8q19 -71 59 -172l205 -498q3 -10 -7 -10h-51q-8 0 -11 7l-68 168h-332l-68 -168q-3 -7 -11 -7h-52q-10 0 -7 10zM207 236h282l-92 221q-29 73 -43 133q-1 4 -3.5 6t-5.5 0t-4 -6q-11 -56 -43 -133zM219 779l87 91 q5 5 12 5h57q7 0 12 -5l89 -91q5 -5 3.5 -8t-8.5 -3h-43q-6 0 -11 4l-70 58l-70 -58q-5 -4 -11 -4h-43q-4 0 -6 1.5t-1.5 4t3.5 5.5z" />
<glyph unicode="&#xc3;" horiz-adv-x="696" d="M44 10l206 498q35 87 58 172q1 8 10 8h59q9 0 10 -8q19 -71 59 -172l205 -498q3 -10 -7 -10h-51q-8 0 -11 7l-68 168h-332l-68 -168q-3 -7 -11 -7h-52q-10 0 -7 10zM181 789l21 36q21 41 74 41q25 0 54 -13l58 -23q19 -7 30 -7q20 0 32 18l10 16q4 6 11 6h37q13 0 6 -11 l-21 -35q-23 -42 -74 -42q-21 0 -54 15l-57 21q-18 8 -31 8q-21 0 -31 -17l-12 -18q-4 -6 -11 -6h-36q-11 0 -6 11zM207 236h282l-92 221q-29 73 -43 133q-1 4 -3.5 6t-5.5 0t-4 -6q-11 -56 -43 -133z" />
<glyph unicode="&#xc4;" horiz-adv-x="696" d="M44 10l206 498q35 87 58 172q1 8 10 8h59q9 0 10 -8q19 -71 59 -172l205 -498q3 -10 -7 -10h-51q-8 0 -11 7l-68 168h-332l-68 -168q-3 -7 -11 -7h-52q-10 0 -7 10zM207 236h282l-92 221q-29 73 -43 133q-1 4 -3.5 6t-5.5 0t-4 -6q-11 -56 -43 -133zM230 820q0 42 44 42 q20 0 31.5 -11.5t11.5 -30.5t-11.5 -30t-31.5 -11q-44 0 -44 41zM379 820q0 42 44 42q20 0 31.5 -11.5t11.5 -30.5t-11.5 -30t-31.5 -11q-44 0 -44 41z" />
<glyph unicode="&#xc5;" horiz-adv-x="696" d="M44 10l206 498q35 87 58 172q1 8 10 8h59q9 0 10 -8q19 -71 59 -172l205 -498q3 -10 -7 -10h-51q-8 0 -11 7l-68 168h-332l-68 -168q-3 -7 -11 -7h-52q-10 0 -7 10zM207 236h282l-92 221q-29 73 -43 133q-1 4 -3.5 6t-5.5 0t-4 -6q-11 -56 -43 -133zM268 820q0 32 21 50 t58 18q38 0 59 -18t21 -50t-21 -49.5t-59 -17.5q-37 0 -58 17.5t-21 49.5zM311 820q0 -30 36 -30t36 30t-36 30t-36 -30z" />
<glyph unicode="&#xc6;" horiz-adv-x="913" d="M44 10l202 488q42 105 62 182q1 8 10 8h528q11 0 8 -10l-12 -42q-1 -8 -10 -8h-411q-12 0 -10 -15q6 -30 31 -91l57 -139h277q9 0 9 -9v-42q0 -9 -9 -9h-253l109 -263h219q9 0 9 -9v-42q0 -9 -9 -9h-258q-8 0 -11 7l-68 168h-332l-68 -168q-3 -7 -11 -7h-52q-10 0 -7 10z M207 236h282l-95 229q-28 68 -39 125q-1 4 -4 6t-6 0t-4 -6q-13 -61 -40 -124z" />
<glyph unicode="&#xc7;" horiz-adv-x="603" d="M56 344q0 165 78 260t214 95q74 0 142 -25l42 -15q8 -3 5 -11l-14 -41q-3 -9 -12 -6l-42 16q-52 19 -121 19q-106 0 -165 -77t-59 -215t59 -215t165 -77q62 0 123 22l41 14q8 3 11 -5l15 -41q3 -8 -5 -11l-41 -15q-73 -26 -144 -26l-17 -42h7q40 0 63.5 -21.5t23.5 -60.5 q0 -41 -26 -64.5t-72 -23.5q-22 0 -45 8l-15 5q-9 3 -6 12l10 31q3 8 11 5l15 -4q15 -5 30 -5q49 0 49 40q0 39 -50 39h-32q-8 0 -12.5 6t-2.5 14l23 64q-116 16 -181 109t-65 242z" />
<glyph unicode="&#xc8;" horiz-adv-x="600" d="M88 9v670q0 9 9 9h437q11 0 8 -10l-13 -42q-1 -8 -10 -8h-365v-245h311q9 0 9 -9v-42q0 -9 -9 -9h-311v-263h384q9 0 9 -9v-42q0 -9 -9 -9h-441q-9 0 -9 9zM194 864q-3 3 -3.5 5.5t1.5 4t6 1.5h68q7 0 11 -5l78 -91q4 -5 2 -8t-7 -3h-48q-6 0 -11 4z" />
<glyph unicode="&#xc9;" horiz-adv-x="600" d="M88 9v670q0 9 9 9h437q11 0 8 -10l-13 -42q-1 -8 -10 -8h-365v-245h311q9 0 9 -9v-42q0 -9 -9 -9h-311v-263h384q9 0 9 -9v-42q0 -9 -9 -9h-441q-9 0 -9 9zM278 779l78 91q4 5 11 5h68q4 0 6 -1.5t1.5 -4t-3.5 -5.5l-97 -92q-5 -4 -11 -4h-48q-5 0 -7 3t2 8z" />
<glyph unicode="&#xca;" horiz-adv-x="600" d="M88 9v670q0 9 9 9h437q11 0 8 -10l-13 -42q-1 -8 -10 -8h-365v-245h311q9 0 9 -9v-42q0 -9 -9 -9h-311v-263h384q9 0 9 -9v-42q0 -9 -9 -9h-441q-9 0 -9 9zM189 779l87 91q5 5 12 5h57q7 0 12 -5l89 -91q5 -5 3.5 -8t-8.5 -3h-43q-6 0 -11 4l-70 58l-70 -58q-5 -4 -11 -4 h-43q-4 0 -6 1.5t-1.5 4t3.5 5.5z" />
<glyph unicode="&#xcb;" horiz-adv-x="600" d="M88 9v670q0 9 9 9h437q11 0 8 -10l-13 -42q-1 -8 -10 -8h-365v-245h311q9 0 9 -9v-42q0 -9 -9 -9h-311v-263h384q9 0 9 -9v-42q0 -9 -9 -9h-441q-9 0 -9 9zM200 820q0 42 44 42q20 0 31.5 -11.5t11.5 -30.5t-11.5 -30t-31.5 -11q-44 0 -44 41zM349 820q0 42 44 42 q20 0 31.5 -11.5t11.5 -30.5t-11.5 -30t-31.5 -11q-44 0 -44 41z" />
<glyph unicode="&#xcc;" horiz-adv-x="242" d="M-2 864q-3 3 -3.5 5.5t1.5 4t6 1.5h68q7 0 11 -5l78 -91q4 -5 2 -8t-7 -3h-48q-6 0 -11 4zM88 9v670q0 9 9 9h48q9 0 9 -9v-670q0 -9 -9 -9h-48q-9 0 -9 9z" />
<glyph unicode="&#xcd;" horiz-adv-x="242" d="M82 779l78 91q4 5 11 5h68q4 0 6 -1.5t1.5 -4t-3.5 -5.5l-97 -92q-5 -4 -11 -4h-48q-5 0 -7 3t2 8zM88 9v670q0 9 9 9h48q9 0 9 -9v-670q0 -9 -9 -9h-48q-9 0 -9 9z" />
<glyph unicode="&#xce;" horiz-adv-x="242" d="M-7 779l87 91q5 5 12 5h57q7 0 12 -5l89 -91q5 -5 3.5 -8t-8.5 -3h-43q-6 0 -11 4l-70 58l-70 -58q-5 -4 -11 -4h-43q-4 0 -6 1.5t-1.5 4t3.5 5.5zM88 9v670q0 9 9 9h48q9 0 9 -9v-670q0 -9 -9 -9h-48q-9 0 -9 9z" />
<glyph unicode="&#xcf;" horiz-adv-x="242" d="M4 820q0 42 44 42q20 0 31.5 -11.5t11.5 -30.5t-11.5 -30t-31.5 -11q-44 0 -44 41zM88 9v670q0 9 9 9h48q9 0 9 -9v-670q0 -9 -9 -9h-48q-9 0 -9 9zM153 820q0 42 44 42q20 0 31.5 -11.5t11.5 -30.5t-11.5 -30t-31.5 -11q-44 0 -44 41z" />
<glyph unicode="&#xd0;" horiz-adv-x="721" d="M34 327v42q0 9 9 9h102v301q0 9 9 9h221q135 0 212 -92t77 -252q0 -159 -77.5 -251.5t-211.5 -92.5h-221q-9 0 -9 9v309h-102q-9 0 -9 9zM211 60h164q105 0 163.5 75t58.5 209t-58.5 209t-163.5 75h-164v-250h141q9 0 9 -9v-42q0 -9 -9 -9h-141v-258z" />
<glyph unicode="&#xd1;" horiz-adv-x="703" d="M88 9v670q0 9 9 9h63q7 0 10 -7q28 -55 56 -97l285 -418q20 -29 33 -60q3 -7 8.5 -5t3.5 9q-7 35 -7 95v474q0 9 9 9h48q9 0 9 -9v-670q0 -9 -9 -9h-62q-7 0 -10 7q-17 36 -56 98l-285 418q-22 36 -33 59q-3 7 -8 5t-4 -9q7 -44 7 -95v-474q0 -9 -9 -9h-49q-9 0 -9 9z M185 789l21 36q21 41 74 41q25 0 54 -13l58 -23q19 -7 30 -7q20 0 32 18l10 16q4 6 11 6h37q13 0 6 -11l-21 -35q-23 -42 -74 -42q-21 0 -54 15l-57 21q-18 8 -31 8q-21 0 -31 -17l-12 -18q-4 -6 -11 -6h-36q-11 0 -6 11z" />
<glyph unicode="&#xd2;" horiz-adv-x="691" d="M56 344q0 164 77.5 259.5t212.5 95.5q134 0 211.5 -95.5t77.5 -259.5t-77.5 -259t-211.5 -95q-135 0 -212.5 95t-77.5 259zM124 344q0 -137 58.5 -214.5t163.5 -77.5t163 77t58 215t-58 215t-163 77t-163.5 -77.5t-58.5 -214.5zM222 864q-3 3 -3.5 5.5t1.5 4t6 1.5h68 q7 0 11 -5l78 -91q4 -5 2 -8t-7 -3h-48q-6 0 -11 4z" />
<glyph unicode="&#xd3;" horiz-adv-x="691" d="M56 344q0 164 77.5 259.5t212.5 95.5q134 0 211.5 -95.5t77.5 -259.5t-77.5 -259t-211.5 -95q-135 0 -212.5 95t-77.5 259zM124 344q0 -137 58.5 -214.5t163.5 -77.5t163 77t58 215t-58 215t-163 77t-163.5 -77.5t-58.5 -214.5zM307 779l78 91q4 5 11 5h68q4 0 6 -1.5 t1.5 -4t-3.5 -5.5l-97 -92q-5 -4 -11 -4h-48q-5 0 -7 3t2 8z" />
<glyph unicode="&#xd4;" horiz-adv-x="691" d="M56 344q0 164 77.5 259.5t212.5 95.5q134 0 211.5 -95.5t77.5 -259.5t-77.5 -259t-211.5 -95q-135 0 -212.5 95t-77.5 259zM124 344q0 -137 58.5 -214.5t163.5 -77.5t163 77t58 215t-58 215t-163 77t-163.5 -77.5t-58.5 -214.5zM218 779l87 91q5 5 12 5h57q7 0 12 -5 l89 -91q5 -5 3.5 -8t-8.5 -3h-43q-6 0 -11 4l-70 58l-70 -58q-5 -4 -11 -4h-43q-4 0 -6 1.5t-1.5 4t3.5 5.5z" />
<glyph unicode="&#xd5;" horiz-adv-x="691" d="M56 344q0 164 77.5 259.5t212.5 95.5q134 0 211.5 -95.5t77.5 -259.5t-77.5 -259t-211.5 -95q-135 0 -212.5 95t-77.5 259zM124 344q0 -137 58.5 -214.5t163.5 -77.5t163 77t58 215t-58 215t-163 77t-163.5 -77.5t-58.5 -214.5zM179 789l21 36q21 41 74 41q25 0 54 -13 l58 -23q19 -7 30 -7q20 0 32 18l10 16q4 6 11 6h37q13 0 6 -11l-21 -35q-23 -42 -74 -42q-21 0 -54 15l-57 21q-18 8 -31 8q-21 0 -31 -17l-12 -18q-4 -6 -11 -6h-36q-11 0 -6 11z" />
<glyph unicode="&#xd6;" horiz-adv-x="691" d="M56 344q0 164 77.5 259.5t212.5 95.5q134 0 211.5 -95.5t77.5 -259.5t-77.5 -259t-211.5 -95q-135 0 -212.5 95t-77.5 259zM124 344q0 -137 58.5 -214.5t163.5 -77.5t163 77t58 215t-58 215t-163 77t-163.5 -77.5t-58.5 -214.5zM229 820q0 42 44 42q20 0 31.5 -11.5 t11.5 -30.5t-11.5 -30t-31.5 -11q-44 0 -44 41zM378 820q0 42 44 42q20 0 31.5 -11.5t11.5 -30.5t-11.5 -30t-31.5 -11q-44 0 -44 41z" />
<glyph unicode="&#xd7;" horiz-adv-x="597" d="M87 73q-6 6 0 12l169 168l-169 169q-6 6 0 12l31 31q6 6 12 0l169 -168l168 168q6 6 12 0l31 -31q6 -6 0 -12l-168 -169l168 -168q6 -6 0 -12l-31 -31q-6 -6 -12 0l-168 169l-169 -170q-6 -6 -12 0z" />
<glyph unicode="&#xd8;" horiz-adv-x="701" d="M61 344q0 164 77.5 259.5t212.5 95.5q114 0 186 -69l40 53q5 5 11 5h38q13 0 6 -11l-63 -82q71 -94 71 -251q0 -164 -77.5 -259t-211.5 -95q-114 0 -188 69l-40 -54q-5 -5 -11 -5h-37q-13 0 -6 11l63 83q-71 94 -71 250zM129 344q0 -119 45 -195l324 429q-56 58 -147 58 q-105 0 -163.5 -77.5t-58.5 -214.5zM203 111q57 -59 148 -59q105 0 163 77t58 215q0 119 -45 195z" />
<glyph unicode="&#xd9;" horiz-adv-x="666" d="M78 270v409q0 9 9 9h48q9 0 9 -9v-409q0 -104 49.5 -161t139.5 -57t139.5 57t49.5 161v409q0 9 9 9h48q9 0 9 -9v-409q0 -132 -67 -206t-188 -74t-188 74t-67 206zM210 864q-3 3 -3.5 5.5t1.5 4t6 1.5h68q7 0 11 -5l78 -91q4 -5 2 -8t-7 -3h-48q-6 0 -11 4z" />
<glyph unicode="&#xda;" horiz-adv-x="666" d="M78 270v409q0 9 9 9h48q9 0 9 -9v-409q0 -104 49.5 -161t139.5 -57t139.5 57t49.5 161v409q0 9 9 9h48q9 0 9 -9v-409q0 -132 -67 -206t-188 -74t-188 74t-67 206zM294 779l78 91q4 5 11 5h68q4 0 6 -1.5t1.5 -4t-3.5 -5.5l-97 -92q-5 -4 -11 -4h-48q-5 0 -7 3t2 8z" />
<glyph unicode="&#xdb;" horiz-adv-x="666" d="M78 270v409q0 9 9 9h48q9 0 9 -9v-409q0 -104 49.5 -161t139.5 -57t139.5 57t49.5 161v409q0 9 9 9h48q9 0 9 -9v-409q0 -132 -67 -206t-188 -74t-188 74t-67 206zM205 779l87 91q5 5 12 5h57q7 0 12 -5l89 -91q5 -5 3.5 -8t-8.5 -3h-43q-6 0 -11 4l-70 58l-70 -58 q-5 -4 -11 -4h-43q-4 0 -6 1.5t-1.5 4t3.5 5.5z" />
<glyph unicode="&#xdc;" horiz-adv-x="666" d="M78 270v409q0 9 9 9h48q9 0 9 -9v-409q0 -104 49.5 -161t139.5 -57t139.5 57t49.5 161v409q0 9 9 9h48q9 0 9 -9v-409q0 -132 -67 -206t-188 -74t-188 74t-67 206zM216 820q0 42 44 42q20 0 31.5 -11.5t11.5 -30.5t-11.5 -30t-31.5 -11q-44 0 -44 41zM365 820q0 42 44 42 q20 0 31.5 -11.5t11.5 -30.5t-11.5 -30t-31.5 -11q-44 0 -44 41z" />
<glyph unicode="&#xdd;" horiz-adv-x="653" d="M42 677q-7 11 6 11h55q7 0 11 -6l147 -227q34 -55 57 -109q2 -7 5 -10q7 -5 10 5q23 56 58 114l148 227q5 6 11 6h55q13 0 6 -11l-171 -265q-46 -76 -63.5 -119.5t-17.5 -107.5v-176q0 -9 -9 -9h-48q-9 0 -9 9v176q0 64 -17 108t-63 119zM287 779l78 91q4 5 11 5h68 q4 0 6 -1.5t1.5 -4t-3.5 -5.5l-97 -92q-5 -4 -11 -4h-48q-5 0 -7 3t2 8z" />
<glyph unicode="&#xde;" horiz-adv-x="625" d="M88 9v670q0 9 9 9h48q9 0 9 -9v-116h180q110 0 171.5 -57t61.5 -158t-61.5 -157.5t-171.5 -56.5h-180v-125q0 -9 -9 -9h-48q-9 0 -9 9zM154 194h180q78 0 121.5 41t43.5 113q0 73 -43.5 114t-121.5 41h-180v-309z" />
<glyph unicode="&#xdf;" horiz-adv-x="575" d="M78 9v487q0 104 54 162.5t149 58.5q80 0 124.5 -35t44.5 -97q0 -50 -47 -99l-63 -65q-27 -27 -27 -55q0 -37 49 -67l79 -46q48 -29 70 -58t22 -69q0 -64 -45.5 -100t-128.5 -36q-60 0 -119 23l-27 11q-8 3 -5 11l16 40q3 8 11 5l23 -9q49 -21 101 -21q53 0 81.5 20 t28.5 56q0 38 -59 74l-82 48q-79 46 -79 114q0 52 44 97l61 63q31 31 31 63q0 34 -27.5 52.5t-76.5 18.5q-65 0 -101.5 -42t-36.5 -118v-487q0 -9 -9 -9h-47q-9 0 -9 9z" />
<glyph unicode="&#xe0;" horiz-adv-x="506" d="M45 134q0 67 45.5 106.5t130.5 40.5h151v13q0 64 -35 99t-99 35q-54 0 -91 -12l-35 -10q-9 -3 -12 6l-11 39q-3 9 6 12l37 11q48 15 107 15q92 0 145 -52t53 -142v-286q0 -9 -9 -9h-31q-9 0 -10 9l-3 45q-4 18 -20 1q-51 -65 -159 -65q-75 0 -117.5 38.5t-42.5 105.5z M110 138q0 -42 26 -65.5t74 -23.5q77 0 119.5 42.5t42.5 120.5v13h-151q-55 0 -83 -23.5t-28 -63.5zM145 697q-9 11 5 11h55q7 0 11 -6l76 -113q7 -11 -6 -11h-41q-6 0 -11 5z" />
<glyph unicode="&#xe1;" horiz-adv-x="506" d="M45 134q0 67 45.5 106.5t130.5 40.5h151v13q0 64 -35 99t-99 35q-54 0 -91 -12l-35 -10q-9 -3 -12 6l-11 39q-3 9 6 12l37 11q48 15 107 15q92 0 145 -52t53 -142v-286q0 -9 -9 -9h-31q-9 0 -10 9l-3 45q-4 18 -20 1q-51 -65 -159 -65q-75 0 -117.5 38.5t-42.5 105.5z M110 138q0 -42 26 -65.5t74 -23.5q77 0 119.5 42.5t42.5 120.5v13h-151q-55 0 -83 -23.5t-28 -63.5zM215 589l76 113q5 6 11 6h55q14 0 5 -11l-89 -114q-5 -5 -11 -5h-41q-13 0 -6 11z" />
<glyph unicode="&#xe2;" horiz-adv-x="506" d="M45 134q0 67 45.5 106.5t130.5 40.5h151v13q0 64 -35 99t-99 35q-54 0 -91 -12l-35 -10q-9 -3 -12 6l-11 39q-3 9 6 12l37 11q48 15 107 15q92 0 145 -52t53 -142v-286q0 -9 -9 -9h-31q-9 0 -10 9l-3 45q-4 18 -20 1q-51 -65 -159 -65q-75 0 -117.5 38.5t-42.5 105.5z M110 138q0 -42 26 -65.5t74 -23.5q77 0 119.5 42.5t42.5 120.5v13h-151q-55 0 -83 -23.5t-28 -63.5zM130 589l90 114q5 5 11 5h43q6 0 11 -5l90 -114q9 -11 -5 -11h-37q-7 0 -11 5l-69 74l-69 -74q-4 -5 -11 -5h-38q-14 0 -5 11z" />
<glyph unicode="&#xe3;" horiz-adv-x="506" d="M45 134q0 67 45.5 106.5t130.5 40.5h151v13q0 64 -35 99t-99 35q-54 0 -91 -12l-35 -10q-9 -3 -12 6l-11 39q-3 9 6 12l37 11q48 15 107 15q92 0 145 -52t53 -142v-286q0 -9 -9 -9h-31q-9 0 -10 9l-3 45q-4 18 -20 1q-51 -65 -159 -65q-75 0 -117.5 38.5t-42.5 105.5z M110 138q0 -42 26 -65.5t74 -23.5q77 0 119.5 42.5t42.5 120.5v13h-151q-55 0 -83 -23.5t-28 -63.5zM110 630l18 38q22 43 66 43q20 0 46 -14l48 -27q16 -8 26 -8q16 0 26 20l11 20q5 6 11 6h30q12 0 6 -11l-19 -37q-20 -43 -65 -43q-22 0 -48 15l-46 24q-17 10 -26 10 q-16 0 -26 -19l-11 -21q-3 -7 -10 -7h-30q-12 0 -7 11z" />
<glyph unicode="&#xe4;" horiz-adv-x="506" d="M45 134q0 67 45.5 106.5t130.5 40.5h151v13q0 64 -35 99t-99 35q-54 0 -91 -12l-35 -10q-9 -3 -12 6l-11 39q-3 9 6 12l37 11q48 15 107 15q92 0 145 -52t53 -142v-286q0 -9 -9 -9h-31q-9 0 -10 9l-3 45q-4 18 -20 1q-51 -65 -159 -65q-75 0 -117.5 38.5t-42.5 105.5z M110 138q0 -42 26 -65.5t74 -23.5q77 0 119.5 42.5t42.5 120.5v13h-151q-55 0 -83 -23.5t-28 -63.5zM135 670q0 20 11 31.5t31 11.5q19 0 30.5 -11.5t11.5 -31.5t-11.5 -31.5t-30.5 -11.5q-20 0 -31 11.5t-11 31.5zM287 670q0 20 11 31.5t31 11.5q19 0 30.5 -11.5 t11.5 -31.5t-11.5 -31.5t-30.5 -11.5q-20 0 -31 11.5t-11 31.5z" />
<glyph unicode="&#xe5;" horiz-adv-x="506" d="M45 134q0 67 45.5 106.5t130.5 40.5h151v13q0 64 -35 99t-99 35q-54 0 -91 -12l-35 -10q-9 -3 -12 6l-11 39q-3 9 6 12l37 11q48 15 107 15q92 0 145 -52t53 -142v-286q0 -9 -9 -9h-31q-9 0 -10 9l-3 45q-4 18 -20 1q-51 -65 -159 -65q-75 0 -117.5 38.5t-42.5 105.5z M110 138q0 -42 26 -65.5t74 -23.5q77 0 119.5 42.5t42.5 120.5v13h-151q-55 0 -83 -23.5t-28 -63.5zM172 643q0 35 21 54t60 19q38 0 59.5 -19.5t21.5 -53.5t-21.5 -53.5t-59.5 -19.5q-39 0 -60 19t-21 54zM214 643q0 -34 39 -34t39 34t-39 34t-39 -34z" />
<glyph unicode="&#xe6;" horiz-adv-x="821" d="M45 136q0 68 45.5 106t126.5 38h155v22q0 58 -35 92t-98 34q-48 0 -91 -12l-36 -11q-9 -3 -12 6l-12 40q-2 10 7 11l40 12q49 14 105 14q118 0 166 -95q8 -14 17 0q53 96 167 96q91 0 136 -40.5t45 -103.5q0 -57 -36.5 -88.5t-114.5 -44.5l-176 -30q9 -59 47 -95.5 t99 -36.5q45 0 95 13l32 9q10 2 11 -7l12 -40q2 -10 -7 -11l-32 -9q-51 -15 -111 -15q-125 0 -176 107q-9 15 -16 0q-51 -107 -190 -107q-77 0 -120 39.5t-43 106.5zM110 139q0 -41 27 -65.5t74 -24.5q81 0 121 42.5t40 134.5h-156q-50 0 -78 -23t-28 -64zM438 238l172 28 q97 16 97 78q0 34 -28.5 59.5t-88.5 25.5q-70 0 -110 -48t-42 -143z" />
<glyph unicode="&#xe7;" horiz-adv-x="467" d="M50 240q0 116 59 182.5t168 66.5q43 0 93 -15l31 -9q9 -2 6 -11l-13 -40q-3 -8 -11 -6l-28 8q-38 13 -77 13q-81 0 -122 -49.5t-41 -139.5t41 -140t120 -50q38 0 85 14l28 8q9 3 12 -6l12 -39q3 -9 -6 -12l-32 -9q-51 -16 -99 -16h-4l-17 -42h7q40 0 63.5 -21.5 t23.5 -60.5q0 -41 -26 -64.5t-72 -23.5q-22 0 -45 8l-15 5q-9 3 -6 12l10 31q3 8 11 5l15 -4q15 -5 30 -5q49 0 49 40q0 39 -50 39h-32q-8 0 -12.5 6t-2.5 14l23 65q-85 15 -130.5 79.5t-45.5 166.5z" />
<glyph unicode="&#xe8;" horiz-adv-x="500" d="M50 240q0 115 58.5 182t160.5 67q85 0 133 -39t48 -109q0 -104 -134 -126l-195 -32q10 -63 49 -98t100 -35q53 0 93 13l30 9q9 2 12 -7l12 -40q2 -10 -7 -11l-32 -9q-48 -15 -108 -15q-103 0 -161.5 67t-58.5 183zM116 238l189 32q80 14 80 70q0 42 -31 65.5t-86 23.5 q-71 0 -110.5 -48t-41.5 -143zM150 696q-9 11 5 11h55q6 0 11 -6l76 -113q7 -11 -6 -11h-41q-6 0 -11 5z" />
<glyph unicode="&#xe9;" horiz-adv-x="500" d="M50 240q0 115 58.5 182t160.5 67q85 0 133 -39t48 -109q0 -104 -134 -126l-195 -32q10 -63 49 -98t100 -35q53 0 93 13l30 9q9 2 12 -7l12 -40q2 -10 -7 -11l-32 -9q-48 -15 -108 -15q-103 0 -161.5 67t-58.5 183zM116 238l189 32q80 14 80 70q0 42 -31 65.5t-86 23.5 q-71 0 -110.5 -48t-41.5 -143zM220 588l76 113q4 6 11 6h55q14 0 5 -11l-89 -114q-5 -5 -11 -5h-41q-13 0 -6 11z" />
<glyph unicode="&#xea;" horiz-adv-x="500" d="M50 240q0 115 58.5 182t160.5 67q85 0 133 -39t48 -109q0 -104 -134 -126l-195 -32q10 -63 49 -98t100 -35q53 0 93 13l30 9q9 2 12 -7l12 -40q2 -10 -7 -11l-32 -9q-48 -15 -108 -15q-103 0 -161.5 67t-58.5 183zM116 238l189 32q80 14 80 70q0 42 -31 65.5t-86 23.5 q-71 0 -110.5 -48t-41.5 -143zM135 588l90 114q5 5 11 5h43q6 0 11 -5l90 -114q9 -11 -5 -11h-37q-7 0 -11 5l-69 74l-69 -74q-4 -5 -11 -5h-38q-14 0 -5 11z" />
<glyph unicode="&#xeb;" horiz-adv-x="500" d="M50 240q0 115 58.5 182t160.5 67q85 0 133 -39t48 -109q0 -104 -134 -126l-195 -32q10 -63 49 -98t100 -35q53 0 93 13l30 9q9 2 12 -7l12 -40q2 -10 -7 -11l-32 -9q-48 -15 -108 -15q-103 0 -161.5 67t-58.5 183zM116 238l189 32q80 14 80 70q0 42 -31 65.5t-86 23.5 q-71 0 -110.5 -48t-41.5 -143zM140 669q0 20 11 31.5t31 11.5q19 0 30.5 -11.5t11.5 -31.5t-11.5 -31.5t-30.5 -11.5q-20 0 -31 11.5t-11 31.5zM292 669q0 20 11 31.5t31 11.5q19 0 30.5 -11.5t11.5 -31.5t-11.5 -31.5t-30.5 -11.5q-20 0 -31 11.5t-11 31.5z" />
<glyph unicode="&#xec;" horiz-adv-x="251" d="M50 696q-5 11 7 11h51q8 0 11 -7l40 -113q5 -10 -7 -10h-37q-7 0 -10 7zM53 429v41q0 9 9 9h102q9 0 9 -9v-461q0 -9 -9 -9h-47q-9 0 -9 9v411h-46q-9 0 -9 9z" />
<glyph unicode="&#xed;" horiz-adv-x="251" d="M53 429v41q0 9 9 9h102q9 0 9 -9v-461q0 -9 -9 -9h-47q-9 0 -9 9v411h-46q-9 0 -9 9zM100 587l40 113q3 7 11 7h51q12 0 7 -11l-55 -112q-3 -7 -10 -7h-37q-12 0 -7 10z" />
<glyph unicode="&#xee;" horiz-adv-x="251" d="M27 588l68 113q4 6 11 6h46q6 0 11 -6l69 -113q7 -11 -6 -11h-36q-6 0 -11 6l-50 70l-50 -70q-5 -6 -11 -6h-35q-13 0 -6 11zM53 429v41q0 9 9 9h102q9 0 9 -9v-461q0 -9 -9 -9h-47q-9 0 -9 9v411h-46q-9 0 -9 9z" />
<glyph unicode="&#xef;" horiz-adv-x="251" d="M25 671q0 20 11 31.5t31 11.5q19 0 30.5 -11.5t11.5 -31.5t-11.5 -31.5t-30.5 -11.5q-20 0 -31 11.5t-11 31.5zM53 429v41q0 9 9 9h102q9 0 9 -9v-461q0 -9 -9 -9h-47q-9 0 -9 9v411h-46q-9 0 -9 9zM149 671q0 20 11 31.5t31 11.5q19 0 30.5 -11.5t11.5 -31.5 t-11.5 -31.5t-30.5 -11.5q-20 0 -31 11.5t-11 31.5z" />
<glyph unicode="&#xf0;" horiz-adv-x="542" d="M50 229q0 109 57.5 173.5t153.5 64.5q73 0 126 -43q8 -7 11.5 -4t-1.5 13q-31 67 -103 137l-101 -49q-7 -4 -12 4l-10 18q-3 8 4 12l88 43q-22 19 -62 55t-48 43q-5 4 -3.5 7.5t8.5 3.5h67q6 0 11 -4q79 -70 86 -77l102 50q7 4 12 -4l9 -19q4 -7 -4 -12l-90 -43 q136 -142 136 -347q0 -125 -57.5 -193t-162.5 -68q-100 0 -158.5 64.5t-58.5 174.5zM115 228q0 -84 40.5 -130.5t113.5 -46.5q72 0 112.5 46.5t40.5 130.5t-40.5 131t-112.5 47q-73 0 -113.5 -46.5t-40.5 -131.5z" />
<glyph unicode="&#xf1;" d="M78 9v461q0 9 9 9h31q9 0 9 -9l4 -61q5 -15 15 -1q57 81 160 81q82 0 129.5 -52t47.5 -142v-286q0 -9 -9 -9h-47q-9 0 -9 9v281q0 65 -31.5 102t-86.5 37q-74 0 -115.5 -53t-41.5 -148v-219q0 -9 -9 -9h-47q-9 0 -9 9zM135 629l18 38q21 43 66 43q20 0 46 -14l48 -27 q16 -8 26 -8q16 0 26 20l11 20q4 6 11 6h30q12 0 6 -11l-19 -37q-20 -43 -65 -43q-23 0 -48 15l-46 24q-17 10 -26 10q-16 0 -26 -19l-11 -21q-3 -7 -10 -7h-30q-12 0 -7 11z" />
<glyph unicode="&#xf2;" horiz-adv-x="537" d="M50 240q0 115 58.5 182t159.5 67t159.5 -67t58.5 -182q0 -116 -58.5 -183t-159.5 -67t-159.5 67t-58.5 183zM115 240q0 -89 40.5 -139.5t112.5 -50.5t113 50.5t41 139.5q0 88 -41 138.5t-113 50.5t-112.5 -50t-40.5 -139zM160 696q-9 11 5 11h55q6 0 11 -6l76 -113 q7 -11 -6 -11h-41q-6 0 -11 5z" />
<glyph unicode="&#xf3;" horiz-adv-x="537" d="M50 240q0 115 58.5 182t159.5 67t159.5 -67t58.5 -182q0 -116 -58.5 -183t-159.5 -67t-159.5 67t-58.5 183zM115 240q0 -89 40.5 -139.5t112.5 -50.5t113 50.5t41 139.5q0 88 -41 138.5t-113 50.5t-112.5 -50t-40.5 -139zM230 588l76 113q4 6 11 6h55q14 0 5 -11 l-89 -114q-5 -5 -11 -5h-41q-13 0 -6 11z" />
<glyph unicode="&#xf4;" horiz-adv-x="537" d="M50 240q0 115 58.5 182t159.5 67t159.5 -67t58.5 -182q0 -116 -58.5 -183t-159.5 -67t-159.5 67t-58.5 183zM115 240q0 -89 40.5 -139.5t112.5 -50.5t113 50.5t41 139.5q0 88 -41 138.5t-113 50.5t-112.5 -50t-40.5 -139zM146 588l90 114q5 5 11 5h43q6 0 11 -5l90 -114 q9 -11 -5 -11h-37q-7 0 -11 5l-69 74l-69 -74q-4 -5 -11 -5h-38q-14 0 -5 11z" />
<glyph unicode="&#xf5;" horiz-adv-x="537" d="M50 240q0 115 58.5 182t159.5 67t159.5 -67t58.5 -182q0 -116 -58.5 -183t-159.5 -67t-159.5 67t-58.5 183zM115 240q0 -89 40.5 -139.5t112.5 -50.5t113 50.5t41 139.5q0 88 -41 138.5t-113 50.5t-112.5 -50t-40.5 -139zM125 629l18 38q21 43 66 43q20 0 46 -14l48 -27 q16 -8 26 -8q16 0 26 20l11 20q4 6 11 6h30q12 0 6 -11l-19 -37q-20 -43 -65 -43q-23 0 -48 15l-46 24q-17 10 -26 10q-16 0 -26 -19l-11 -21q-3 -7 -10 -7h-30q-12 0 -7 11z" />
<glyph unicode="&#xf6;" horiz-adv-x="537" d="M50 240q0 115 58.5 182t159.5 67t159.5 -67t58.5 -182q0 -116 -58.5 -183t-159.5 -67t-159.5 67t-58.5 183zM115 240q0 -89 40.5 -139.5t112.5 -50.5t113 50.5t41 139.5q0 88 -41 138.5t-113 50.5t-112.5 -50t-40.5 -139zM151 669q0 20 11 31.5t31 11.5q19 0 30.5 -11.5 t11.5 -31.5t-11.5 -31.5t-30.5 -11.5q-20 0 -31 11.5t-11 31.5zM303 669q0 20 11 31.5t31 11.5q19 0 30.5 -11.5t11.5 -31.5t-11.5 -31.5t-30.5 -11.5q-20 0 -31 11.5t-11 31.5z" />
<glyph unicode="&#xf8;" horiz-adv-x="537" d="M50 240q0 115 58.5 182t159.5 67q82 0 136 -45l24 30q5 5 11 5h32q14 0 5 -11l-42 -53q52 -68 52 -175q0 -116 -58.5 -183t-159.5 -67q-82 0 -136 45l-24 -30q-5 -5 -11 -5h-33q-14 0 -5 11l43 54q-52 66 -52 175zM113 240q0 -76 30 -124l223 280q-41 33 -98 33 q-73 0 -114 -50t-41 -139zM170 84q40 -34 98 -34q73 0 114.5 50.5t41.5 139.5q0 74 -31 124z" />
<glyph unicode="&#xf9;" d="M73 184v286q0 9 9 9h47q9 0 9 -9v-281q0 -65 31.5 -102t86.5 -37q74 0 115.5 53t41.5 148v219q0 9 9 9h47q9 0 9 -9v-461q0 -9 -9 -9h-31q-9 0 -9 9l-4 61q-5 15 -15 1q-57 -81 -160 -81q-82 0 -129.5 52t-47.5 142zM167 696q-9 11 5 11h55q7 0 11 -6l76 -113 q7 -11 -6 -11h-41q-6 0 -11 5z" />
<glyph unicode="&#xfa;" d="M73 184v286q0 9 9 9h47q9 0 9 -9v-281q0 -65 31.5 -102t86.5 -37q74 0 115.5 53t41.5 148v219q0 9 9 9h47q9 0 9 -9v-461q0 -9 -9 -9h-31q-9 0 -9 9l-4 61q-5 15 -15 1q-57 -81 -160 -81q-82 0 -129.5 52t-47.5 142zM237 588l76 113q5 6 11 6h55q14 0 5 -11l-89 -114 q-5 -5 -11 -5h-41q-13 0 -6 11z" />
<glyph unicode="&#xfb;" d="M73 184v286q0 9 9 9h47q9 0 9 -9v-281q0 -65 31.5 -102t86.5 -37q74 0 115.5 53t41.5 148v219q0 9 9 9h47q9 0 9 -9v-461q0 -9 -9 -9h-31q-9 0 -9 9l-4 61q-5 15 -15 1q-57 -81 -160 -81q-82 0 -129.5 52t-47.5 142zM153 588l90 114q5 5 11 5h43q6 0 11 -5l90 -114 q9 -11 -5 -11h-37q-7 0 -11 5l-69 74l-69 -74q-4 -5 -11 -5h-38q-14 0 -5 11z" />
<glyph unicode="&#xfc;" d="M73 184v286q0 9 9 9h47q9 0 9 -9v-281q0 -65 31.5 -102t86.5 -37q74 0 115.5 53t41.5 148v219q0 9 9 9h47q9 0 9 -9v-461q0 -9 -9 -9h-31q-9 0 -9 9l-4 61q-5 15 -15 1q-57 -81 -160 -81q-82 0 -129.5 52t-47.5 142zM158 669q0 20 11 31.5t31 11.5q19 0 30.5 -11.5 t11.5 -31.5t-11.5 -31.5t-30.5 -11.5q-20 0 -31 11.5t-11 31.5zM310 669q0 20 11 31.5t31 11.5q19 0 30.5 -11.5t11.5 -31.5t-11.5 -31.5t-30.5 -11.5q-20 0 -31 11.5t-11 31.5z" />
<glyph unicode="&#xfd;" horiz-adv-x="540" d="M40 468q-5 11 7 11h50q7 0 10 -7l119 -263q26 -62 37 -110q1 -4 3.5 -6t5.5 0t4 6q11 42 40 110l117 263q3 7 10 7h51q11 0 6 -11l-294 -672q-3 -7 -10 -7h-49q-12 0 -7 11l69 155q28 66 -14 166zM229 588l76 113q5 6 11 6h55q14 0 5 -11l-89 -114q-5 -5 -11 -5h-41 q-13 0 -6 11z" />
<glyph unicode="&#xfe;" horiz-adv-x="553" d="M78 -203v901q0 9 9 9h47q9 0 9 -9v-184q0 -56 -9 -102q-2 -7 2.5 -8.5t10.5 4.5q53 81 150 81q98 0 152 -66.5t54 -182.5t-57.5 -183t-158.5 -67q-63 0 -114 24l-30 14v-231q0 -9 -9 -9h-47q-9 0 -9 9zM142 91l41 -20q45 -21 102 -21q72 0 112.5 50.5t40.5 139.5 t-38.5 139t-107.5 50q-72 0 -111 -55.5t-39 -144.5v-138z" />
<glyph unicode="&#xff;" horiz-adv-x="540" d="M40 468q-5 11 7 11h50q7 0 10 -7l119 -263q26 -62 37 -110q1 -4 3.5 -6t5.5 0t4 6q11 42 40 110l117 263q3 7 10 7h51q11 0 6 -11l-294 -672q-3 -7 -10 -7h-49q-12 0 -7 11l69 155q28 66 -14 166zM149 669q0 20 11 31.5t31 11.5q19 0 30.5 -11.5t11.5 -31.5t-11.5 -31.5 t-30.5 -11.5q-20 0 -31 11.5t-11 31.5zM301 669q0 20 11 31.5t31 11.5q19 0 30.5 -11.5t11.5 -31.5t-11.5 -31.5t-30.5 -11.5q-20 0 -31 11.5t-11 31.5z" />
<glyph unicode="&#x152;" horiz-adv-x="1064" d="M56 344q0 166 76 260.5t208 94.5q133 0 203 -101q7 -10 12 -8.5t5 14.5v75q0 9 9 9h430q11 0 8 -10l-12 -42q-1 -8 -10 -8h-366v-245h311q9 0 9 -9v-42q0 -9 -9 -9h-311v-263h385q9 0 9 -9v-42q0 -9 -9 -9h-435q-9 0 -9 9v79q0 26 -17 4q-67 -102 -203 -102 q-132 0 -208 94.5t-76 259.5zM124 344q0 -138 57.5 -215t158.5 -77q103 0 158 73.5t55 218.5q0 146 -55 219t-158 73q-101 0 -158.5 -77t-57.5 -215z" />
<glyph unicode="&#x153;" horiz-adv-x="871" d="M50 240q0 115 58.5 182t159.5 67q126 0 178 -110q8 -14 16 0q52 110 178 110q85 0 133 -39.5t48 -109.5q0 -103 -144 -127l-183 -31q9 -62 47.5 -97t98.5 -35q45 0 94 13l31 9q10 2 11 -7l12 -41q2 -10 -7 -11l-31 -8q-50 -15 -110 -15q-126 0 -178 110q-8 14 -16 0 q-52 -110 -178 -110q-101 0 -159.5 67t-58.5 183zM115 240q0 -89 40.5 -139.5t112.5 -50.5t113 50.5t41 139.5q0 88 -41 138.5t-113 50.5t-112.5 -50.5t-40.5 -138.5zM487 238l181 30q89 16 89 72q0 41 -31 65t-85 24q-72 0 -112 -48.5t-42 -142.5z" />
<glyph unicode="&#x178;" horiz-adv-x="653" d="M42 677q-7 11 6 11h55q7 0 11 -6l147 -227q34 -55 57 -109q2 -7 5 -10q7 -5 10 5q23 56 58 114l148 227q5 6 11 6h55q13 0 6 -11l-171 -265q-46 -76 -63.5 -119.5t-17.5 -107.5v-176q0 -9 -9 -9h-48q-9 0 -9 9v176q0 64 -17 108t-63 119zM209 820q0 42 44 42 q20 0 31.5 -11.5t11.5 -30.5t-11.5 -30t-31.5 -11q-44 0 -44 41zM358 820q0 42 44 42q20 0 31.5 -11.5t11.5 -30.5t-11.5 -30t-31.5 -11q-44 0 -44 41z" />
<glyph unicode="&#x2c6;" horiz-adv-x="359" d="M57 588l90 114q5 5 11 5h43q6 0 11 -5l90 -114q9 -11 -5 -11h-37q-7 0 -11 5l-69 74l-69 -74q-4 -5 -11 -5h-38q-14 0 -5 11z" />
<glyph unicode="&#x2dc;" horiz-adv-x="394" d="M53 629l18 38q21 43 66 43q20 0 46 -14l48 -27q16 -8 26 -8q16 0 26 20l11 20q4 6 11 6h30q12 0 6 -11l-19 -37q-20 -43 -65 -43q-23 0 -48 15l-46 24q-17 10 -26 10q-16 0 -26 -19l-11 -21q-3 -7 -10 -7h-30q-12 0 -7 11z" />
<glyph unicode="&#x2000;" horiz-adv-x="444" />
<glyph unicode="&#x2001;" horiz-adv-x="888" />
<glyph unicode="&#x2002;" horiz-adv-x="444" />
<glyph unicode="&#x2003;" horiz-adv-x="888" />
<glyph unicode="&#x2004;" horiz-adv-x="296" />
<glyph unicode="&#x2005;" horiz-adv-x="222" />
<glyph unicode="&#x2006;" horiz-adv-x="148" />
<glyph unicode="&#x2007;" horiz-adv-x="148" />
<glyph unicode="&#x2008;" horiz-adv-x="111" />
<glyph unicode="&#x2009;" horiz-adv-x="177" />
<glyph unicode="&#x200a;" horiz-adv-x="49" />
<glyph unicode="&#x2010;" horiz-adv-x="440" d="M81 242v41q0 9 9 9h260q9 0 9 -9v-41q0 -9 -9 -9h-260q-9 0 -9 9z" />
<glyph unicode="&#x2011;" horiz-adv-x="440" d="M81 242v41q0 9 9 9h260q9 0 9 -9v-41q0 -9 -9 -9h-260q-9 0 -9 9z" />
<glyph unicode="&#x2012;" horiz-adv-x="440" d="M81 242v41q0 9 9 9h260q9 0 9 -9v-41q0 -9 -9 -9h-260q-9 0 -9 9z" />
<glyph unicode="&#x2013;" horiz-adv-x="672" d="M81 242v41q0 9 9 9h492q9 0 9 -9v-41q0 -9 -9 -9h-492q-9 0 -9 9z" />
<glyph unicode="&#x2014;" horiz-adv-x="789" d="M81 242v41q0 9 9 9h609q9 0 9 -9v-41q0 -9 -9 -9h-609q-9 0 -9 9z" />
<glyph unicode="&#x2018;" horiz-adv-x="196" d="M50 597q0 27 25 65l29 44h46l-33 -52q-11 -14 4 -21q25 -12 25 -42q0 -22 -13 -34.5t-35 -12.5t-35 14t-13 39z" />
<glyph unicode="&#x2019;" horiz-adv-x="196" d="M46 549l33 52q11 14 -4 21q-25 12 -25 42q0 22 13 34.5t35 12.5t35 -14t13 -39q0 -28 -25 -65l-29 -44h-46z" />
<glyph unicode="&#x201a;" horiz-adv-x="196" d="M46 -72l33 52q11 14 -4 21q-25 12 -25 42q0 22 13 34.5t35 12.5t35 -14t13 -39q0 -27 -25 -65l-29 -44h-46z" />
<glyph unicode="&#x201c;" horiz-adv-x="342" d="M50 597q0 27 25 65l29 44h46l-33 -52q-11 -14 4 -21q25 -12 25 -42q0 -22 -13 -34.5t-35 -12.5t-35 14t-13 39zM196 597q0 27 25 65l29 44h46l-33 -52q-11 -14 4 -21q25 -12 25 -42q0 -22 -13 -34.5t-35 -12.5t-35 14t-13 39z" />
<glyph unicode="&#x201d;" horiz-adv-x="343" d="M46 549l33 52q11 14 -4 21q-25 12 -25 42q0 22 13 34.5t35 12.5t35 -14t13 -39q0 -28 -25 -65l-29 -44h-46zM193 549l33 52q11 14 -4 21q-25 12 -25 42q0 22 13 34.5t35 12.5t35 -14t13 -39q0 -28 -25 -65l-29 -44h-46z" />
<glyph unicode="&#x201e;" horiz-adv-x="343" d="M46 -72l33 52q11 14 -4 21q-25 12 -25 42q0 22 13 34.5t35 12.5t35 -14t13 -39q0 -27 -25 -65l-29 -44h-46zM193 -72l33 52q11 14 -4 21q-25 12 -25 42q0 22 13 34.5t35 12.5t35 -14t13 -39q0 -27 -25 -65l-29 -44h-46z" />
<glyph unicode="&#x2022;" horiz-adv-x="351" d="M98 344q0 82 78 82q77 0 77 -82t-77 -82q-78 0 -78 82z" />
<glyph unicode="&#x2026;" horiz-adv-x="531" d="M65 40q0 50 48 50q23 0 36 -13.5t13 -36.5t-13 -36.5t-36 -13.5q-48 0 -48 50zM222 40q0 50 48 50q23 0 36 -13.5t13 -36.5t-13 -36.5t-36 -13.5q-48 0 -48 50zM379 40q0 50 48 50q23 0 36 -13.5t13 -36.5t-13 -36.5t-36 -13.5q-48 0 -48 50z" />
<glyph unicode="&#x202f;" horiz-adv-x="177" />
<glyph unicode="&#x2039;" horiz-adv-x="367" d="M79 236v7q0 6 4 11l127 160q5 5 11 5h54q14 0 5 -11l-132 -168l132 -169q9 -11 -5 -11h-53q-6 0 -11 5l-128 160q-4 5 -4 11z" />
<glyph unicode="&#x203a;" horiz-adv-x="367" d="M87 71l132 169l-132 168q-9 11 5 11h54q6 0 11 -5l127 -160q4 -5 4 -11v-7q0 -6 -4 -11l-128 -160q-5 -5 -11 -5h-53q-14 0 -5 11z" />
<glyph unicode="&#x205f;" horiz-adv-x="222" />
<glyph unicode="&#x20ac;" horiz-adv-x="669" d="M46 271v32q0 9 9 9h69l-1 32q0 28 1 41h-69q-9 0 -9 9v32q0 9 9 9h75q20 125 94.5 194.5t190.5 69.5q74 0 142 -25l42 -15q8 -3 5 -11l-14 -41q-3 -9 -12 -6l-42 16q-52 19 -121 19q-87 0 -143 -52t-73 -149h256q12 0 7 -10l-11 -33q-3 -7 -11 -7h-248q-1 -13 -1 -41 l1 -32h220q12 0 7 -10l-11 -33q-3 -7 -11 -7h-200q17 -100 73 -155t145 -55q63 0 123 22l41 14q8 3 11 -5l15 -41q3 -8 -5 -11l-41 -15q-73 -26 -144 -26q-118 0 -193 72t-93 200h-74q-9 0 -9 9z" />
<glyph unicode="&#x2122;" horiz-adv-x="894" d="M24 647v32q0 9 9 9h317q9 0 9 -9v-32q0 -9 -9 -9h-132v-324q0 -9 -9 -9h-36q-9 0 -9 9v324h-131q-9 0 -9 9zM436 314v365q0 9 9 9h58q8 0 11 -7q9 -24 18 -40l73 -146q22 -54 24 -60q3 -11 8 0q5 18 25 60l73 146l17 40q3 7 10 7h60q9 0 9 -9v-365q0 -9 -9 -9h-36 q-9 0 -9 9v199q0 59 5 94q1 6 -2.5 7t-5.5 -5q-3 -7 -10 -22t-10 -23l-75 -147q-11 -22 -21 -47q-1 -7 -10 -7h-30q-8 0 -11 7q-3 8 -10 24t-10 23l-74 147q-4 8 -22 45q-3 6 -5.5 5t-1.5 -7q5 -35 5 -94v-199q0 -9 -9 -9h-35q-9 0 -9 9z" />
<glyph unicode="&#xe000;" horiz-adv-x="480" d="M0 0v480h480v-480h-480z" />
</font>
</defs>
</svg>
